<?xml version="1.0" standalone="no"?>
<!DOCTYPE svg PUBLIC "-//W3C//DTD SVG 1.1//EN" "http://www.w3.org/Graphics/SVG/1.1/DTD/svg11.dtd" >
<svg xmlns="http://www.w3.org/2000/svg">
<metadata>Generated by IcoMoon</metadata>
<defs>
<font id="icomoon" horiz-adv-x="1024">
<font-face units-per-em="1024" ascent="960" descent="-64" />
<missing-glyph horiz-adv-x="1024" />
<glyph unicode="&#x20;" horiz-adv-x="512" d="" />
<glyph unicode="&#xe900;" glyph-name="cloud" d="M711.642 71.189c-0.427 0-1.28 0-1.707 0h-473.175c-125.44 8.96-181.76 105.387-181.76 191.573 0 76.8 44.8 162.133 142.507 185.6-27.307 106.665-4.267 206.932 65.28 279.465 78.933 82.773 205.655 115.627 314.455 81.92 99.84-30.72 170.24-113.067 195.84-227.413 87.467-19.627 157.013-85.758 185.173-177.065 30.293-99.413 2.987-201.387-71.68-266.667-47.787-43.093-110.080-67.413-174.933-67.413zM237.613 390.336c-0.427 0-0.427 0-0.853 0-81.067-5.973-118.187-68.267-118.187-127.573s37.12-121.6 119.893-127.573h471.042c49.493 0.853 96.853 17.92 133.547 51.2 66.56 58.453 71.253 141.653 53.333 200.107-17.92 58.88-67.84 125.44-154.88 136.533-14.080 1.707-25.173 12.372-27.733 26.452-17.067 102.4-72.533 173.227-155.733 198.827-86.613 26.453-186.455 0.427-249.175-64.853-56.747-59.307-72.96-141.227-46.507-231.252 21.76-2.987 42.667-9.387 61.867-19.2 15.787-8.107 22.187-27.307 14.080-43.093s-27.307-22.187-43.093-14.080c-17.493 8.96-36.693 13.653-55.893 13.653-0.427 0.853-0.853 0.853-1.707 0.853zM676.186 504.738c-11.947 0-23.040 6.4-28.587 17.92-8.107 15.786-1.28 34.986 14.507 43.092 26.453 13.227 55.893 20.48 84.907 20.907 17.067 0.427 32.427-13.653 32.427-31.573 0.427-17.493-13.653-32.426-31.573-32.426-19.627-0.427-39.68-5.12-57.6-14.080-4.693-2.56-9.387-3.84-14.080-3.84z" />
<glyph unicode="&#xe901;" glyph-name="cloud-cross" d="M710.473 74.594c-0.427 0-1.28 0-1.707 0-17.493 0-32 14.507-31.573 32.427 0 17.493 14.507 31.573 32 31.573 0.427 0 1.28 0 1.707 0 48.64 0 95.147 17.92 130.987 51.2 66.133 58.027 70.827 140.8 52.907 199.253s-67.413 124.587-154.027 135.68c-14.080 1.707-25.173 12.372-27.733 26.452-17.067 101.973-72.107 172.373-154.88 197.973-86.187 26.453-185.601 0.427-247.894-64.853-60.587-63.573-74.667-151.892-39.68-249.599 5.973-16.64-2.56-34.987-19.2-40.96s-34.987 2.56-40.96 19.2c-43.093 119.893-23.467 234.666 53.76 315.306 78.507 82.347 204.374 115.2 313.174 81.493 99.413-30.72 169.813-112.64 194.987-226.133 87.040-19.627 156.587-85.332 184.32-176.212 30.293-98.987 2.56-200.533-71.253-265.387-48.64-43.52-110.507-67.413-174.933-67.413zM237.574 74.709c-0.853 0-1.707 0-2.133 0-122.88 8.533-178.774 104.96-178.774 190.72s55.893 181.76 178.774 190.72c32 0.427 62.72-6.827 90.027-20.48 15.787-8.107 21.76-27.307 14.080-43.093-8.107-15.787-27.307-21.76-43.094-14.080-17.92 9.387-38.826 13.227-58.026 13.653-80.64-5.973-117.334-67.84-117.334-126.72s36.693-120.747 119.467-126.72c17.493-1.28 30.72-16.64 29.44-34.133-1.706-17.067-15.786-29.867-32.426-29.867zM674.927 506.078c-11.52 0-23.040 6.404-28.587 17.92-8.107 15.789-1.707 34.989 14.507 43.095 26.027 13.227 55.467 20.48 84.48 20.907 16.64-0.853 32.427-13.653 32.427-31.573 0.427-17.493-13.653-32.429-31.573-32.429-19.627-0.422-39.253-5.116-57.173-14.076-4.267-2.987-9.387-3.844-14.080-3.844zM407.893 14.528c-8.107 0-16.213 2.987-22.613 9.387-12.373 12.373-12.373 32.853 0 45.227l120.747 120.747c12.373 12.373 32.853 12.373 45.227 0s12.373-32.853 0-45.227l-120.747-120.747c-6.4-6.4-14.507-9.387-22.613-9.387zM528.64 14.528c-8.107 0-16.213 2.987-22.613 9.387l-120.747 120.747c-12.373 12.373-12.373 32.853 0 45.227s32.853 12.373 45.227 0l120.747-120.747c12.373-12.373 12.373-32.853 0-45.227-6.4-6.4-14.507-9.387-22.613-9.387z" />
<glyph unicode="&#xe902;" glyph-name="cloud-drizzle" d="M710.473 74.594c-0.427 0-1.28 0-1.707 0-17.493 0-32 14.507-31.573 32.427 0 17.493 14.507 31.573 32 31.573 0.427 0 1.28 0 1.707 0 48.64 0 95.147 17.92 130.987 51.2 66.133 58.027 70.827 140.8 52.907 199.253s-67.413 124.587-154.027 135.68c-14.080 1.707-25.173 12.372-27.733 26.452-17.067 101.973-72.107 172.373-154.88 197.973-86.187 26.453-185.601 0.427-247.894-64.853-60.587-63.573-74.667-151.892-39.68-249.599 5.973-16.64-2.56-34.987-19.2-40.96s-34.987 2.56-40.96 19.2c-43.093 119.893-23.467 234.666 53.76 315.306 78.933 82.347 204.374 115.2 313.174 81.493 99.413-30.72 169.813-112.64 194.987-226.133 87.040-19.627 156.587-85.332 184.32-176.212 30.293-98.987 2.56-200.533-71.253-265.387-48.64-43.52-110.507-67.413-174.933-67.413zM237.574 74.709c-0.853 0-1.707 0-2.133 0-122.88 8.533-178.774 104.96-178.774 190.72s55.893 181.76 178.774 190.72c31.573 0.427 62.72-6.827 90.027-20.48 15.787-8.107 21.76-27.307 14.080-43.093-8.107-15.787-27.307-21.76-43.094-14.080-17.92 9.387-38.4 13.227-58.026 13.653-80.64-5.973-117.334-67.84-117.334-126.72s36.693-120.747 119.467-126.72c17.493-1.28 30.72-16.64 29.44-34.133-1.706-17.067-15.786-29.867-32.426-29.867zM674.927 506.078c-11.52 0-23.040 6.404-28.587 17.92-8.107 15.789-1.707 34.989 14.507 43.095 26.027 13.227 55.467 20.48 84.48 20.907 16.213-0.853 32.427-13.653 32.427-31.573 0.427-17.493-13.653-32.429-31.573-32.429-19.627-0.422-39.253-5.116-57.173-14.076-4.267-2.987-9.387-3.844-14.080-3.844zM340.060-10.726c-8.107 0-16.213 2.987-22.613 9.387-12.373 12.373-12.373 32.853 0 45.227l85.333 85.333c12.373 12.373 32.855 12.373 45.228 0s12.373-32.853 0-45.227l-85.335-85.333c-5.973-6.4-14.080-9.387-22.613-9.387zM510.729-10.726c-8.107 0-16.213 2.987-22.613 9.387-12.373 12.373-12.373 32.853 0 45.227l85.333 85.333c12.373 12.373 32.853 12.373 45.227 0s12.373-32.853 0-45.227l-85.333-85.333c-5.973-6.4-14.080-9.387-22.613-9.387zM510.729 159.94c-8.107 0-16.213 2.987-22.613 9.387-12.373 12.373-12.373 32.853 0 45.227l85.333 85.333c12.373 12.373 32.853 12.373 45.227 0s12.373-32.853 0-45.227l-85.333-85.333c-5.973-6.4-14.080-9.387-22.613-9.387zM340.060 159.94c-8.107 0-16.213 2.987-22.613 9.387-12.373 12.373-12.373 32.853 0 45.227l85.333 85.333c12.373 12.373 32.855 12.373 45.228 0s12.373-32.853 0-45.227l-85.335-85.333c-5.973-6.4-14.080-9.387-22.613-9.387z" />
<glyph unicode="&#xe903;" glyph-name="cloud-fog" d="M183.043 432.239c-13.227 0-25.599 8.107-30.292 21.333-43.093 120.322-23.466 235.948 53.76 316.588 78.933 82.773 205.227 115.628 314.452 81.921 99.84-30.72 170.24-113.066 195.84-227.413 76.8-17.493 141.227-71.253 174.080-148.052 6.827-16.213-0.427-34.991-16.64-42.244-16.213-6.827-34.987 0.431-42.24 16.644-27.733 64-81.067 105.384-146.773 113.917-14.080 1.707-25.173 12.373-27.733 26.453-17.067 102.4-72.533 173.227-155.733 198.827-86.186 26.453-186.454 0.427-249.174-64.853-61.013-63.573-75.093-152.747-40.107-250.882 5.973-16.64-2.558-34.987-19.198-40.96-2.987-0.427-6.829-1.28-10.242-1.28zM620.352 546.914c-11.947 0-23.040 6.399-28.587 17.919-8.107 15.787-1.28 34.987 14.507 43.094 26.88 13.227 55.467 20.48 84.907 20.906 18.347-0.853 32.427-13.653 32.427-31.573 0.427-17.493-13.658-32.427-31.578-32.427-20.053-0.427-39.249-5.12-57.596-14.080-4.693-2.987-9.387-3.84-14.080-3.84zM853.333 286.669h-682.667c-17.493 0-32 14.507-32 32 0 17.489 14.507 32 32 32h682.667c17.493 0 32-14.511 32-32 0-17.493-14.507-32-32-32zM768 158.669h-512c-17.493 0-32 14.507-32 32 0 17.489 14.507 32 32 32h512c17.493 0 32-14.511 32-32 0-17.493-14.507-32-32-32zM640 30.669h-256c-17.493 0-32 14.507-32 32 0 17.489 14.507 32 32 32h256c17.493 0 32-14.511 32-32 0-17.493-14.507-32-32-32z" />
<glyph unicode="&#xe904;" glyph-name="cloud-lightning" d="M710.379 74.594c-0.427 0-1.28 0-1.707 0-17.493 0-32 14.507-31.573 32.427 0 17.493 14.933 33.28 32.427 31.573 49.493 0 96.427 17.92 132.693 51.2 66.133 58.027 70.827 140.8 52.907 199.253s-67.84 124.587-154.027 135.68c-14.080 1.707-25.173 12.372-27.733 26.452-16.64 101.973-72.107 172.373-154.88 197.973-86.187 26.453-185.6 0.427-247.894-64.853-60.587-63.573-74.667-151.892-39.68-249.599 5.973-16.64-2.56-34.987-19.2-40.96s-34.987 2.56-40.96 19.2c-43.093 119.893-23.467 234.666 53.76 315.306 78.933 82.347 204.374 115.2 313.174 81.493 99.413-30.72 169.813-112.64 194.987-226.133 87.040-19.627 156.587-85.332 184.32-176.212 30.293-98.987 2.987-200.533-71.253-265.387-49.067-43.52-110.933-67.413-175.36-67.413zM237.574 74.726c-0.853 0-1.707 0-2.133 0-122.88 8.533-178.774 104.96-178.774 190.72s55.893 181.76 178.774 190.72c32.426-0.427 62.72-6.827 90.027-20.48 15.787-8.107 21.76-27.307 14.080-43.093-8.107-15.787-27.307-21.76-43.094-14.080-17.92 9.387-38.4 13.653-58.026 13.653-80.64-5.973-117.334-67.84-117.334-126.72s36.694-120.747 119.040-126.72c17.493-1.28 30.72-16.64 29.866-34.133-1.706-17.067-15.786-29.867-32.426-29.867zM674.927 506.078c-11.947 0-23.040 6.404-28.587 17.92-8.107 15.789-1.707 34.989 14.507 43.095 26.027 13.227 55.467 20.48 84.48 20.907h0.427c17.493 0 31.573-14.080 32-31.573s-13.653-32.429-31.573-32.429c-19.627-0.422-39.253-5.116-57.173-14.076-4.693-2.987-9.387-3.844-14.080-3.844zM452.723-5.086c-5.547 0-11.52 0.853-17.067 2.987-18.772 7.253-31.145 24.747-31.145 44.8v67.413h-10.667c-32 0-43.52 18.773-47.36 26.453-3.413 8.533-9.387 29.867 11.52 53.333l104.532 119.040c13.227 14.933 34.133 20.48 52.907 13.227s31.147-24.747 31.147-44.8v-67.413h10.667c31.573 0 43.52-18.773 47.36-26.453s9.813-29.013-11.093-52.907l-104.533-119.040c-9.813-10.667-23.040-16.64-36.267-16.64zM429.257 174.541h7.253c17.493 0 32-14.507 32-32v-56.747l52.907 60.16h-7.253c-17.493 0-32 14.507-32 32v56.747l-52.907-60.16z" />
<glyph unicode="&#xe905;" glyph-name="cloud-minus" d="M553.335 74.667h-170.669c-17.493 0-32 14.507-32 32s14.507 32 32 32h170.669c17.489 0 32-14.507 32-32s-14.080-32-32-32zM710.473 74.594c-0.427 0-1.28 0-1.707 0-17.493 0-32 14.507-31.573 32.427 0 17.493 14.507 31.573 32 31.573 0.427 0 1.28 0 1.707 0 48.64 0 95.147 17.92 130.987 51.2 66.133 58.027 70.827 140.8 52.907 199.253s-67.413 124.587-154.027 135.68c-14.080 1.707-25.173 12.372-27.733 26.452-17.067 101.973-72.107 172.373-154.88 197.973-86.187 26.453-185.601 0.427-247.894-64.853-60.587-63.573-74.667-151.892-39.68-249.599 5.973-16.64-2.56-34.987-19.2-40.96s-34.987 2.56-40.96 19.2c-43.093 119.893-23.467 234.666 53.76 315.306 78.933 82.347 204.801 115.2 313.174 81.493 99.413-30.72 169.813-112.64 194.987-226.133 87.040-19.627 156.587-85.332 184.32-176.212 30.293-98.987 2.56-200.533-71.253-265.387-48.64-43.52-110.507-67.413-174.933-67.413zM237.574 74.709c-0.853 0-1.707 0-2.133 0-122.88 8.533-178.774 104.96-178.774 190.72s55.893 181.76 178.774 190.72c31.573 0.427 62.72-6.827 90.027-20.48 15.787-8.107 21.76-27.307 14.080-43.093-8.107-15.787-27.307-21.76-43.094-14.080-17.92 9.387-38.4 13.227-58.026 13.653-80.64-5.973-117.334-67.84-117.334-126.72s36.693-120.747 119.467-126.72c17.493-1.28 30.72-16.64 29.44-34.133-1.706-17.067-15.786-29.867-32.426-29.867zM674.927 506.078c-11.52 0-23.040 6.404-28.587 17.92-8.107 15.789-1.707 34.989 14.507 43.095 26.027 13.227 55.467 20.48 84.48 20.907 16.64-0.853 32.427-13.653 32.427-31.573 0.427-17.493-13.653-32.429-31.573-32.429-19.627-0.422-39.253-5.116-57.173-14.076-4.267-2.987-9.387-3.844-14.080-3.844z" />
<glyph unicode="&#xe906;" glyph-name="cloud-notif" d="M711.309 71.189c-0.858 0-1.284 0-1.711 0h-473.171c-125.44 8.96-181.76 105.813-181.76 191.573 0 76.8 44.8 162.133 142.080 185.6-26.88 107.521-3.413 208.214 67.413 281.174 80.213 82.773 207.785 114.773 316.585 79.36 16.644-5.547 26.031-23.467 20.484-40.107s-23.467-26.027-40.111-20.48c-86.609 27.733-187.731 2.56-251.305-63.573-61.867-64-76.373-153.174-40.96-251.734 3.413-9.813 2.133-20.907-3.84-29.013s-15.787-13.653-26.027-13.653c-82.773-5.973-119.893-68.267-119.893-127.573s37.12-121.6 119.893-128h471.038c48.64-0.427 97.28 17.92 133.547 51.2 49.067 43.093 70.4 105.813 59.733 172.373-2.987 17.493 8.964 33.707 26.458 36.693s33.702-8.96 36.689-26.453c14.507-87.893-15.787-174.080-79.787-230.4-47.787-42.667-110.076-66.987-175.356-66.987zM309.753 372.83c-4.693 0-9.813 1.28-14.080 3.413-17.92 8.96-37.547 13.653-57.6 14.080-17.493 0.427-31.573 14.933-31.573 32.427 0.427 17.493 17.067 32 32.427 31.573 29.44-0.427 58.88-7.68 84.907-20.907 15.787-7.68 22.187-27.307 14.507-43.093-5.547-11.093-16.64-17.493-28.587-17.493zM787.998 415.927c-99.84 0-181.329 81.493-181.329 181.332 0 46.933 17.916 91.307 50.342 124.587 0.853 1.28 1.707 2.133 2.56 2.987 34.133 34.56 79.36 53.333 128 53.333 99.84 0 181.333-81.493 181.333-181.333 0-55.467-24.742-107.092-68.262-141.652-31.147-25.173-71.258-39.253-112.644-39.253zM708.215 682.593c-0.853-1.28-1.707-2.133-2.987-3.413-22.187-21.76-34.56-51.2-34.56-82.347 0-64.852 52.476-117.332 117.329-117.332 26.453 0 52.484 8.96 72.964 25.6 28.587 22.613 44.369 55.892 44.369 91.732 0 64.853-52.48 117.333-117.333 117.333-30.293 0.427-58.449-11.093-79.782-31.573z" />
<glyph unicode="&#xe907;" glyph-name="cloud-plus" d="M710.473 74.594c-0.427 0-1.28 0-1.707 0-17.493 0-32 14.507-31.573 32.427 0 17.493 14.507 31.573 32 31.573 0.427 0 1.28 0 1.707 0 48.64 0 95.147 17.92 130.987 51.2 66.133 58.027 70.827 140.8 52.907 199.253s-67.413 124.587-154.027 135.68c-14.080 1.707-25.173 12.372-27.733 26.452-17.067 101.973-72.107 172.373-154.88 197.973-86.187 26.453-185.601 0.427-247.894-64.853-60.587-63.573-74.667-151.892-39.68-249.599 5.973-16.64-2.56-34.987-19.2-40.96s-34.987 2.56-40.96 19.2c-43.093 119.893-23.467 234.666 53.76 315.306 78.933 82.347 204.374 115.2 313.174 81.493 99.413-30.72 169.813-112.64 194.987-226.133 87.040-19.627 156.587-85.332 184.32-176.212 30.293-98.987 2.56-200.533-71.253-265.387-48.64-43.52-110.507-67.413-174.933-67.413zM237.574 74.709c-0.853 0-1.707 0-2.133 0-122.88 8.533-178.774 104.96-178.774 190.72s55.893 181.76 178.774 190.72c31.573 0.427 62.72-6.827 90.027-20.48 15.787-8.107 21.76-27.307 14.080-43.093-8.107-15.787-27.307-21.76-43.094-14.080-17.92 9.387-38.4 13.227-58.026 13.653-80.64-5.973-117.334-67.84-117.334-126.72s36.693-120.747 119.467-126.72c17.493-1.28 30.72-16.64 29.44-34.133-1.706-17.067-15.786-29.867-32.426-29.867zM674.927 506.078c-11.52 0-23.040 6.404-28.587 17.92-8.107 15.789-1.707 34.989 14.507 43.095 26.027 13.227 55.467 20.48 84.48 20.907 16.64-0.853 32.427-13.653 32.427-31.573 0.427-17.493-13.653-32.429-31.573-32.429-19.627-0.422-39.253-5.116-57.173-14.076-4.267-2.987-9.387-3.844-14.080-3.844zM553.335 74.667h-170.669c-17.493 0-32 14.507-32 32s14.507 32 32 32h170.669c17.489 0 32-14.507 32-32s-14.080-32-32-32zM468.002-10.667c-17.493 0-32 14.507-32 32v170.667c0 17.493 14.507 32 32 32 17.489 0 32-14.507 32-32v-170.667c0-17.493-14.084-32-32-32z" />
<glyph unicode="&#xe908;" glyph-name="cloud-snow" d="M710.379 74.594c-0.427 0-1.28 0-1.707 0-17.493 0-32 14.507-31.573 32.427 0 17.493 15.787 33.28 32.427 31.573 46.933 0 96.427 17.92 132.693 51.2 66.133 58.027 70.827 140.8 52.907 199.253s-67.84 124.587-154.027 135.68c-14.080 1.707-25.173 12.372-27.733 26.452-16.64 101.973-72.107 172.373-154.88 197.973-86.187 26.453-185.6 0.427-247.894-64.853-60.587-63.573-74.667-151.892-39.68-249.599 5.973-16.64-2.56-34.987-19.2-40.96s-34.987 2.56-40.96 19.2c-43.093 119.893-23.467 234.666 53.76 315.306 78.933 82.347 204.374 115.2 313.174 81.493 99.413-30.72 169.813-112.64 194.987-226.133 87.040-19.627 156.587-85.332 184.32-176.212 30.293-98.987 2.987-200.533-71.253-265.387-49.067-43.52-110.933-67.413-175.36-67.413zM237.574 74.726c-0.853 0-1.707 0-2.133 0-122.88 8.533-178.774 104.96-178.774 190.72s55.893 181.76 178.774 190.72c32.426-0.427 62.72-6.827 90.027-20.48 15.787-8.107 21.76-27.307 14.080-43.093-8.107-15.787-27.307-21.76-43.094-14.080-17.92 9.387-37.973 13.653-58.026 13.653-80.64-5.973-117.334-67.84-117.334-126.72s36.694-120.747 119.040-126.72c17.493-1.28 30.72-16.64 29.866-34.133-1.706-17.067-15.786-29.867-32.426-29.867zM674.927 506.078c-11.947 0-23.040 6.404-28.587 17.92-8.107 15.789-1.707 34.989 14.507 43.095 26.027 13.227 55.467 20.48 84.48 20.907h0.427c17.493 0 31.573-14.080 32-31.573s-13.653-32.429-31.573-32.429c-19.627-0.422-39.253-5.116-57.173-14.076-4.693-2.987-9.387-3.844-14.080-3.844zM553.835 149.333c-23.893 0-42.667 19.2-42.667 42.667s19.2 42.667 42.667 42.667c23.467 0 42.667-19.2 42.667-42.667s-19.2-42.667-42.667-42.667zM383.167 149.333c-23.893 0-42.667 19.2-42.667 42.667s19.2 42.667 42.667 42.667c23.467 0 42.667-19.2 42.667-42.667s-19.2-42.667-42.667-42.667zM468.501 21.333c-23.893 0-42.668 19.2-42.668 42.667s19.201 42.667 42.668 42.667c23.467 0 42.667-19.2 42.667-42.667s-19.2-42.667-42.667-42.667z" />
<glyph unicode="&#xe909;" glyph-name="cloud-sunny" d="M711.309 71.215c-0.858 0-1.284 0-1.711 0h-473.171c-125.44 8.96-181.76 105.813-181.76 191.573 0 76.8 44.8 162.133 142.080 185.6-42.667 163.839 38.4 278.612 133.973 332.799 110.931 63.147 276.055 63.573 376.318-58.027 0.858-1.28 1.707-2.56 2.56-3.84 29.867-37.973 50.773-83.627 62.72-136.533 52.48-11.52 97.707-39.68 133.12-81.492 80.64-95.147 96.004-260.693-19.2-362.24-47.787-43.947-109.649-67.84-174.929-67.84zM490.295 759.427c-45.231 0-90.029-12.373-127.575-33.707-103.253-58.88-138.24-168.107-93.867-292.692 3.413-9.813 2.133-20.907-3.84-29.013s-15.787-13.653-26.027-13.653c-82.773-5.973-119.893-68.267-119.893-127.573s37.12-121.6 119.893-128h471.038c49.498-0.427 97.28 17.92 133.547 51.2l0.427 0.427c86.618 75.947 73.813 200.96 12.8 273.067-29.867 35.413-69.547 57.173-115.2 63.147-14.080 1.707-25.169 12.372-27.302 26.452-8.964 52.907-27.733 97.28-55.893 132.266-0.853 0.853-1.28 2.134-2.133 2.987-45.227 52.907-105.818 75.093-165.973 75.093zM309.753 372.83c-4.693 0-9.813 1.28-14.080 3.413-17.92 8.96-37.547 13.653-57.6 14.080-17.493 0.427-31.573 14.933-31.573 32.427 0.427 17.493 17.067 32 32.427 31.573 29.44-0.427 58.88-7.68 84.907-20.907 15.787-7.68 22.187-27.307 14.507-43.093-5.547-11.093-16.64-17.493-28.587-17.493zM676.186 504.738c-11.947 0-23.040 6.4-28.587 17.92-8.107 15.786-1.28 34.986 14.507 43.092 26.453 13.227 55.893 20.48 84.907 20.907 17.067 0.427 32.427-13.653 32.427-31.573 0.427-17.493-13.653-32.426-31.573-32.426-19.627-0.427-39.68-5.12-57.6-14.080-4.693-2.56-9.387-3.84-14.080-3.84zM881.067 448.853c-8.96 0-18.347 3.84-24.747 11.52-29.44 35.413-69.547 57.173-115.2 63.147-14.080 1.707-25.173 12.373-27.307 26.453-8.96 52.907-27.733 97.28-55.893 132.267-4.693 5.547-7.253 12.8-7.253 20.053 0 8.533 3.413 17.067 9.387 23.040 34.133 34.56 79.36 53.333 128 53.333 99.84 0 181.333-81.493 181.333-181.333 0-55.467-24.747-107.093-68.267-141.653-5.973-4.693-12.8-6.827-20.053-6.827zM772.693 582.827c40.96-8.96 78.080-28.16 108.8-56.32 15.36 20.053 23.893 44.8 23.893 70.827 0 64.853-52.48 117.333-117.333 117.333-22.187 0-43.52-5.973-61.867-17.92 21.76-32.853 37.12-71.253 46.507-113.92z" />
<glyph unicode="&#xe90a;" glyph-name="flash" d="M579.068 5.116c-9.813 0-19.627 1.707-29.013 5.12-32 11.947-52.48 41.813-52.48 75.947v275.2h-99.839c-32.427 0-60.587 18.347-73.814 47.787s-8.107 62.72 13.227 87.040l322.986 366.935c22.613 25.6 57.6 34.56 89.6 22.187 32-11.947 52.48-41.813 52.48-75.947v-275.2h99.84c32.427 0 60.587-18.348 73.813-47.788s8.107-62.72-13.227-87.040l-322.987-366.933c-15.787-17.92-37.973-27.307-60.587-27.307zM720.294 826.877c-3.84 0-8.533-1.28-12.373-5.973l-322.987-367.362c-6.827-7.68-4.265-15.36-2.985-18.347s5.546-10.24 15.786-10.24h131.839c17.493 0 32-14.507 32-32v-307.2c0-10.667 7.68-14.933 11.093-16.213s11.947-3.413 18.773 4.693l322.987 367.36c6.827 7.68 4.267 15.36 2.987 18.347s-5.547 10.24-15.787 10.24h-131.84c-17.493 0-32 14.507-32 32v307.202c0 10.667-7.68 14.933-11.093 16.213-1.28 0.853-3.84 1.28-6.4 1.28zM362.667 757.333h-298.667c-17.493 0-32 14.507-32 32s14.507 32 32 32h298.667c17.493 0 32-14.507 32-32s-14.507-32-32-32zM320 74.667h-256c-17.493 0-32 14.507-32 32s14.507 32 32 32h256c17.493 0 32-14.507 32-32s-14.507-32-32-32zM192 416h-128c-17.493 0-32 14.507-32 32s14.507 32 32 32h128c17.493 0 32-14.507 32-32s-14.507-32-32-32z" />
<glyph unicode="&#xe90b;" glyph-name="icon" d="M511.94-10.667c-208.215 0-377.602 169.387-377.602 377.6-1.28 244.48 231.68 448 331.948 524.373 26.88 20.48 64.427 20.48 91.307 0 100.267-77.653 333.227-283.733 331.947-524.8 0-207.787-169.387-377.173-377.6-377.173zM511.94 842.667c-2.133 0-4.693-0.853-6.827-2.56-72.107-55.040-307.628-251.733-306.348-473.173 0-173.227 140.8-313.6 313.601-313.6s313.6 140.373 313.6 313.173c1.28 218.453-234.667 417.707-307.2 473.6-2.56 1.707-4.693 2.56-6.827 2.56z" />
<glyph unicode="&#xe90c;" glyph-name="moon" d="M531.563-10.59c-7.253 0-14.507 0-21.76 0.427-238.934 10.667-438.614 203.093-455.254 437.76-14.507 201.388 101.973 389.548 289.707 468.482 53.333 22.187 81.493 5.12 93.441-7.253 11.947-11.947 28.587-39.68 6.4-90.453-19.628-45.227-29.441-93.44-29.014-142.933 0.853-189.015 157.868-349.442 349.441-357.122 27.733-1.28 55.040 0.853 81.493 5.547 56.32 10.24 79.787-12.373 88.747-26.88s19.2-45.653-14.933-91.733c-90.453-123.733-234.24-195.84-388.267-195.84zM118.122 432.29c14.507-203.093 187.733-369.493 394.241-378.453 140.373-6.827 273.493 57.173 355.413 168.96 6.4 8.96 9.387 15.36 10.667 18.773-3.84 0.427-10.667 0.853-21.333-1.28-31.147-5.547-63.573-7.68-95.573-6.4-225.28 8.96-409.601 197.973-410.881 420.695 0 58.88 11.52 115.627 34.987 168.96 4.267 9.387 5.12 15.787 5.547 19.2-3.84 0-10.667-0.853-21.76-5.547-162.56-68.267-263.253-231.253-251.307-404.908z" />
<glyph unicode="&#xe90d;" glyph-name="sun" d="M512 565.333c-17.493 0-32 14.507-32 32v234.667c0 17.493 14.507 32 32 32s32-14.507 32-32v-234.667c0-17.493-14.507-32-32-32zM512 32c-17.493 0-32 14.507-32 32v234.667c0 17.493 14.507 32 32 32s32-14.507 32-32v-234.667c0-17.493-14.507-32-32-32zM597.333 800h-170.667c-17.493 0-32 14.507-32 32s14.507 32 32 32h170.667c17.493 0 32-14.507 32-32s-14.507-32-32-32zM597.333 32h-170.667c-17.493 0-32 14.507-32 32s14.507 32 32 32h170.667c17.493 0 32-14.507 32-32s-14.507-32-32-32zM382.809 490.62c-5.547 0-11.093 1.28-15.787 4.267l-203.093 117.332c-15.36 8.96-20.48 28.586-11.52 43.52 8.96 15.36 28.587 20.48 43.52 11.52l203.093-117.333c15.36-8.96 20.48-28.585 11.52-43.518-5.973-10.24-16.64-15.787-27.733-15.787zM844.309 223.953c-5.547 0-11.093 1.28-15.787 4.267l-203.093 117.333c-15.36 8.96-20.48 28.587-11.52 43.52 8.96 15.36 28.587 20.48 43.52 11.52l203.093-117.333c15.36-8.96 20.48-28.587 11.52-43.52-5.973-10.24-16.64-15.787-27.733-15.787zM137.049 534.158c-5.547 0-11.093 1.28-15.787 4.266-15.36 8.96-20.48 28.587-11.52 43.52l85.333 147.627c8.96 15.36 28.587 20.48 43.52 11.52 15.36-8.96 20.48-28.586 11.52-43.52l-85.333-147.627c-5.973-10.24-17.067-15.786-27.733-15.786zM801.715 150.157c-5.547 0-11.093 1.28-15.787 4.267-15.36 8.96-20.48 28.587-11.52 43.52l85.333 147.627c8.96 15.36 28.587 20.48 43.52 11.52 15.36-8.96 20.48-28.587 11.52-43.52l-85.333-147.627c-5.547-10.24-16.64-15.787-27.733-15.787zM512 266.594c-64.427 0-124.587 34.56-157.013 90.453-16.213 28.16-24.32 58.453-24.32 90.88s8.107 62.72 24.32 90.452c32.427 55.893 92.587 90.454 157.013 90.454s124.587-34.56 157.013-90.454c16.213-28.159 24.32-58.452 24.32-90.879s-8.107-62.72-24.32-90.453c-32.427-55.893-92.587-90.453-157.013-90.453zM512 565.26c-41.813 0-80.64-22.614-101.547-58.879-10.24-17.92-15.787-37.973-15.787-58.453s5.12-40.533 15.787-58.88c20.907-36.267 59.733-58.88 101.547-58.88s80.64 22.613 101.547 58.88c10.24 17.92 15.787 37.973 15.787 58.453s-5.12 40.533-15.787 58.88c-20.907 36.265-59.733 58.879-101.547 58.879zM641.216 490.62c-11.093 0-21.76 5.547-27.733 16.213-8.96 15.36-3.413 34.985 11.52 43.518l203.093 117.333c15.36 8.96 34.987 3.414 43.52-11.52 8.96-15.36 3.413-34.987-11.52-43.52l-203.093-117.332c-4.693-3.413-10.24-4.693-15.787-4.693zM179.715 223.953c-11.093 0-21.76 5.547-27.733 16.213-8.96 15.36-3.413 34.987 11.52 43.52l203.093 117.333c15.36 8.96 34.987 3.413 43.52-11.52 8.96-15.36 3.413-34.987-11.52-43.52l-203.093-117.333c-4.693-3.413-10.24-4.693-15.787-4.693zM887.049 534.158c-11.093 0-21.76 5.546-27.733 16.213l-85.333 147.627c-8.96 15.36-3.413 34.987 11.52 43.52 15.36 8.96 34.987 3.413 43.52-11.52l85.333-147.627c8.96-15.36 3.413-34.986-11.52-43.52-4.693-3.413-10.24-4.693-15.787-4.693zM222.382 150.157c-11.093 0-21.76 5.547-27.733 16.213l-85.333 147.627c-8.96 15.36-3.413 34.987 11.52 43.52 15.36 8.96 34.987 3.413 43.52-11.52l85.333-147.627c8.96-15.36 3.413-34.987-11.52-43.52-5.12-3.413-10.667-4.693-15.787-4.693z" />
<glyph unicode="&#xe90e;" glyph-name="sun-1" d="M512 138.667c-170.667 0-309.333 138.667-309.333 309.333s138.667 309.333 309.333 309.333c170.667 0 309.333-138.667 309.333-309.333s-138.667-309.333-309.333-309.333zM512 693.333c-135.253 0-245.333-110.080-245.333-245.333s110.080-245.333 245.333-245.333c135.253 0 245.333 110.080 245.333 245.333s-110.080 245.333-245.333 245.333zM512-19.627c-23.467 0-42.667 17.493-42.667 40.96v3.413c0 23.467 19.2 42.667 42.667 42.667s42.667-19.2 42.667-42.667c0-23.467-19.2-44.373-42.667-44.373zM816.64 100.693c-11.093 0-21.76 4.267-30.293 12.373l-5.547 5.547c-16.64 16.64-16.64 43.52 0 60.16s43.52 16.64 60.16 0l5.547-5.547c16.64-16.64 16.64-43.52 0-60.16-8.107-8.107-18.773-12.373-29.867-12.373zM207.36 100.693c-11.093 0-21.76 4.267-30.293 12.373-16.64 16.64-16.64 43.52 0 60.16l5.547 5.547c16.64 16.64 43.52 16.64 60.16 0s16.64-43.52 0-60.16l-5.547-5.547c-8.107-8.107-19.2-12.373-29.867-12.373zM938.667 405.333h-3.413c-23.467 0-42.667 19.2-42.667 42.667s19.2 42.667 42.667 42.667c23.467 0 44.373-19.2 44.373-42.667s-17.493-42.667-40.96-42.667zM88.747 405.333h-3.413c-23.467 0-42.667 19.2-42.667 42.667s19.2 42.667 42.667 42.667c23.467 0 44.373-19.2 44.373-42.667s-17.493-42.667-40.96-42.667zM811.093 704.427c-11.093 0-21.76 4.267-30.293 12.373-16.64 16.64-16.64 43.52 0 60.16l5.547 5.547c16.64 16.64 43.52 16.64 60.16 0s16.64-43.52 0-60.16l-5.547-5.547c-8.107-8.107-18.773-12.373-29.867-12.373zM212.907 704.427c-11.093 0-21.76 4.267-30.293 12.373l-5.547 5.973c-16.64 16.64-16.64 43.52 0 60.16s43.52 16.64 60.16 0l5.547-5.547c16.64-16.64 16.64-43.52 0-60.16-8.107-8.533-19.2-12.8-29.867-12.8zM512 830.293c-23.467 0-42.667 17.493-42.667 40.96v3.413c0 23.467 19.2 42.667 42.667 42.667s42.667-19.2 42.667-42.667c0-23.467-19.2-44.373-42.667-44.373z" />
<glyph unicode="&#xe90f;" glyph-name="sun-fog" d="M789.333 416c-17.493 0-32 14.507-32 32 0 135.253-110.080 245.333-245.333 245.333s-245.333-110.080-245.333-245.333c0-17.493-14.507-32-32-32s-32 14.507-32 32c0 170.667 138.667 309.333 309.333 309.333s309.333-138.667 309.333-309.333c0-17.493-14.507-32-32-32zM938.667 405.333h-3.413c-23.467 0-42.667 19.2-42.667 42.667s19.2 42.667 42.667 42.667c23.467 0 44.373-19.2 44.373-42.667s-17.493-42.667-40.96-42.667zM88.748 405.333h-3.414c-23.467 0-42.667 19.2-42.667 42.667s19.2 42.667 42.667 42.667c23.467 0 44.372-19.2 44.372-42.667s-17.492-42.667-40.958-42.667zM811.093 704.427c-11.093 0-21.76 4.266-30.293 12.372-16.64 16.64-16.64 43.52 0 60.16l5.547 5.547c16.64 16.64 43.52 16.64 60.16 0s16.64-43.52 0-60.16l-5.547-5.547c-8.107-8.107-18.773-12.372-29.867-12.372zM212.906 704.427c-11.093 0-21.758 4.266-30.292 12.372l-5.547 5.547c-16.64 16.64-16.64 43.52 0 60.16s43.519 16.64 60.159 0l5.547-5.547c16.64-16.64 16.64-43.52 0-60.16-8.107-8.107-19.2-12.372-29.867-12.372zM512 830.293c-23.467 0-42.667 17.494-42.667 40.961v3.413c0 23.467 19.2 42.667 42.667 42.667s42.667-19.2 42.667-42.667c0-23.467-19.2-44.374-42.667-44.374zM853.333 288h-682.667c-17.493 0-32 14.507-32 32s14.507 32 32 32h682.667c17.493 0 32-14.507 32-32s-14.507-32-32-32zM768 160h-512c-17.493 0-32 14.507-32 32s14.507 32 32 32h512c17.493 0 32-14.507 32-32s-14.507-32-32-32zM640 32h-256c-17.493 0-32 14.507-32 32s14.507 32 32 32h256c17.493 0 32-14.507 32-32s-14.507-32-32-32z" />
<glyph unicode="&#xe910;" glyph-name="wind" d="M789.333-10.667c-99.84 0-181.333 81.493-181.333 181.333v21.333c0 17.493 14.507 32 32 32s32-14.507 32-32v-21.333c0-64.853 52.48-117.333 117.333-117.333s117.333 52.48 117.333 117.333c0 64.853-52.48 117.333-117.333 117.333h-704c-17.493 0-32 14.507-32 32s14.507 32 32 32h704c99.84 0 181.333-81.493 181.333-181.333s-81.493-181.333-181.333-181.333zM789.333 416h-704c-17.493 0-32 14.507-32 32s14.507 32 32 32h704c64.853 0 117.333 52.48 117.333 117.333s-52.48 117.333-117.333 117.333c-64.853 0-117.333-52.48-117.333-117.333v-21.333c0-17.493-14.507-32-32-32s-32 14.507-32 32v21.333c0 99.84 81.493 181.333 181.333 181.333s181.333-81.493 181.333-181.333c0-99.84-81.493-181.333-181.333-181.333zM397.227 543.953h-311.893c-17.493 0-32 14.507-32 32s14.507 32 32 32h311.893c45.653 0 82.773 37.12 82.773 82.773s-37.12 82.773-82.773 82.773c-45.653 0-82.773-37.12-82.773-82.773v-16.213c0-17.493-14.507-32-32-32s-32 14.507-32 32v16.213c0 81.067 65.707 146.773 146.773 146.773s146.773-65.707 146.773-146.773c0-81.067-65.707-146.773-146.773-146.773z" />
<glyph unicode="&#xe911;" glyph-name="wind-2" d="M938.662 369.028c-5.547 0-11.093 1.28-16.213 4.693l-106.667 64c-55.467 33.28-124.587 33.28-180.48 0-75.947-45.653-170.24-45.653-246.187 0-55.467 33.28-124.586 33.28-180.479 0l-106.667-64c-15.36-8.96-34.988-4.267-43.948 11.093s-4.266 34.987 11.094 43.947l106.667 64c75.947 45.652 170.241 45.652 246.188 0 55.466-33.28 124.586-33.28 180.48 0 75.947 45.652 170.24 45.652 246.187 0l106.667-64c15.36-8.96 20.053-28.587 11.093-43.947-6.4-10.24-17.067-15.787-27.733-15.787zM298.588 667.805c-42.667 0-85.334 11.52-123.307 34.133l-106.667 64c-15.36 8.96-20.052 28.587-11.092 43.947 8.96 14.933 28.587 20.053 43.947 11.093l106.667-64c55.467-33.28 124.586-33.28 180.479 0 75.945 45.653 170.242 45.653 246.189 0 55.467-33.28 124.582-33.28 180.476 0l106.667 64c15.36 8.96 34.991 4.267 43.951-11.093 8.96-14.933 4.267-34.987-11.093-43.947l-106.667-64c-75.947-45.653-170.244-45.653-246.191 0-55.467 33.28-124.582 33.28-180.477 0-37.547-22.613-80.214-34.133-122.88-34.133zM938.662 70.362c-5.547 0-11.093 1.28-16.213 4.693l-106.667 64c-55.467 33.28-124.587 33.28-180.48 0-75.947-45.653-170.24-45.653-246.187 0-55.467 33.28-124.586 33.28-180.479 0l-106.667-64c-15.36-8.96-34.988-4.267-43.948 11.093s-4.266 34.987 11.094 43.947l106.667 64c75.947 45.653 170.241 45.653 246.188 0 55.466-33.28 124.586-33.28 180.48 0 75.947 45.653 170.24 45.653 246.187 0l106.667-64c15.36-8.96 20.053-28.587 11.093-43.947-6.4-10.24-17.067-15.787-27.733-15.787z" />
<glyph unicode="&#xe912;" glyph-name="audio-square" d="M640-10.667h-256c-231.68 0-330.667 98.987-330.667 330.667v256c0 231.68 98.987 330.667 330.667 330.667h256c231.68 0 330.667-98.987 330.667-330.667v-256c0-231.68-98.987-330.667-330.667-330.667zM384 842.667c-196.693 0-266.667-69.973-266.667-266.667v-256c0-196.693 69.973-266.667 266.667-266.667h256c196.693 0 266.667 69.973 266.667 266.667v256c0 196.693-69.973 266.667-266.667 266.667h-256zM410.453 189.926c-67.413 0-122.453 55.040-122.453 122.453s55.040 122.453 122.453 122.453c67.413 0 122.453-55.040 122.453-122.453s-55.040-122.453-122.453-122.453zM410.453 370.406c-32 0-58.453-26.027-58.453-58.453 0-32 26.027-58.453 58.453-58.453 32 0 58.453 26.027 58.453 58.453s-26.453 58.453-58.453 58.453zM501.001 280.341c-17.493 0-32 14.507-32 32v316.159c0 17.493 14.507 32 32 32s32-14.507 32-32v-316.159c0-17.92-14.507-32-32-32zM662.281 472.247c-8.96 0-18.347 1.707-27.733 4.693l-99.84 33.284c-37.547 12.373-65.707 51.622-65.707 91.302v26.453c0 26.88 11.093 50.347 30.72 64.427s45.227 17.494 70.827 8.961l99.84-33.281c37.547-12.373 65.707-51.625 65.707-91.305v-26.453c0-26.878-11.093-50.349-30.72-64.429-12.373-8.96-27.307-13.653-43.093-13.653zM542.387 642.062c-2.133 0-4.267-0.425-5.547-1.279-2.56-1.707-4.267-6.402-4.267-12.375v-26.453c0-11.947 11.093-26.879 22.187-30.719l99.84-33.281c5.547-1.707 10.667-1.707 13.227 0s4.267 6.402 4.267 12.375v26.453c0 11.947-11.093 26.879-22.187 30.719l-99.84 33.281c-2.56 0.853-5.547 1.279-7.68 1.279z" />
<glyph unicode="&#xe913;" glyph-name="backward" d="M855.467 176.7c-19.627 0-39.68 5.12-57.6 15.787l-270.507 156.16c-12.373 7.253-22.187 15.787-29.44 25.173-4.693 5.547-7.253 12.8-7.253 20.053v109.227c0 7.253 2.56 14.507 7.253 20.053 7.68 9.387 17.493 17.92 29.44 24.746l270.933 156.588c35.84 20.907 78.933 20.907 115.2 0s57.6-58.027 57.6-99.84v-312.32c0-41.813-21.333-78.933-57.6-99.84-18.347-10.667-38.4-15.787-58.027-15.787zM554.24 407.1c1.707-1.28 3.413-2.56 5.12-3.413l270.080-155.733c16.213-9.387 35.413-9.387 51.2 0 16.213 9.387 25.6 26.027 25.6 44.373v312.32c0 18.347-9.387 34.986-25.6 44.372s-34.987 9.387-51.2 0l-270.507-156.16c-1.707-0.853-3.413-2.133-4.693-3.413v-82.347zM439.040 176.7c-19.626 0-39.68 5.12-57.6 15.787l-270.506 156.16c-35.84 20.907-57.6 58.027-57.6 99.84s21.334 78.933 57.6 99.84l270.506 156.16c35.84 20.907 78.933 20.907 115.2 0s57.6-58.027 57.6-99.84v-312.32c0-41.813-21.333-78.933-57.6-99.84-17.92-10.667-37.973-15.787-57.6-15.787zM439.040 655.419c-8.96 0-17.493-2.132-25.6-6.825l-270.506-156.16c-16.213-9.387-25.6-26.027-25.6-44.373s9.387-34.987 25.6-44.373l270.506-156.16c16.213-9.387 35.413-9.387 51.2 0 16.213 9.387 25.6 25.6 25.6 44.373v312.32c0 18.347-9.387 34.987-25.6 44.374-8.107 4.693-16.64 6.825-25.6 6.825z" />
<glyph unicode="&#xe914;" glyph-name="backward-5-seconds" d="M528.239 238.067h-97.707c-17.493 0-32 14.507-32 32s14.507 32 32 32h97.707c18.347 0 33.28 14.933 33.28 33.28s-14.933 33.28-33.28 33.28h-97.707c-10.24 0-20.052 5.12-26.026 13.227s-7.68 19.2-4.267 29.013l32.426 97.707c4.267 13.227 16.64 21.76 30.293 21.76h130.56c17.493 0 32-14.507 32-32s-14.507-32-32-32h-107.52l-11.093-33.707h53.333c53.76 0 97.28-43.52 97.28-97.28s-43.52-97.28-97.28-97.28zM427.601 737.345c-7.252 0-14.079 2.133-20.052 7.253-13.653 11.093-15.787 31.146-5.12 44.799l84.479 105.385c11.093 13.653 31.147 15.789 44.8 5.123 13.653-11.093 15.787-31.149 5.12-44.802l-84.48-105.385c-5.973-8.107-15.36-12.372-24.747-12.372zM511.974-10.615c-226.56 0-411.308 184.32-411.308 411.307 0 88.32 28.587 173.229 83.2 245.762 10.667 14.080 30.72 17.065 44.8 6.398s17.068-30.72 6.401-44.8c-46.080-61.44-70.401-133.121-70.401-207.361 0-191.573 155.734-347.307 347.308-347.307s347.307 155.733 347.307 347.307c0 191.575-155.733 347.309-347.307 347.309-24.747 0-49.92-2.988-77.227-9.388-17.067-3.84-34.56 6.827-38.4 23.893s6.827 34.561 23.893 38.401c32 7.253 62.293 11.094 91.733 11.094 226.56 0 411.307-184.32 411.307-411.309 0-226.987-184.747-411.307-411.307-411.307z" />
<glyph unicode="&#xe915;" glyph-name="backward-10-seconds" d="M407.104 248.785c-17.493 0-32 14.507-32 32v144.64l-8.107-8.96c-11.947-13.227-32-14.080-45.227-2.56-13.227 11.947-14.080 32-2.56 45.227l64 71.253c8.96 9.813 23.040 13.227 35.413 8.534s20.48-16.64 20.48-29.867v-228.267c0-17.92-14.080-32-32-32zM427.601 737.345c-7.252 0-14.079 2.133-20.052 7.253-13.653 11.093-15.787 31.146-5.12 44.799l84.479 105.385c11.093 13.653 31.147 15.789 44.8 5.123s15.787-31.149 5.12-44.802l-84.48-105.385c-5.973-8.107-15.36-12.372-24.747-12.372zM511.974-10.615c-226.56 0-411.308 184.32-411.308 411.307 0 88.32 28.587 173.229 83.2 245.762 10.667 14.080 30.72 17.065 44.8 6.398s17.068-30.72 6.401-44.8c-46.080-61.44-70.401-133.121-70.401-207.361 0-191.573 155.734-347.307 347.308-347.307s347.307 155.733 347.307 347.307c0 191.575-155.733 347.309-347.307 347.309-24.747 0-49.92-2.988-77.227-9.388-17.067-3.84-34.56 6.827-38.4 23.893s6.827 34.561 23.893 38.401c32 7.253 62.293 11.094 91.733 11.094 226.56 0 411.307-184.32 411.307-411.309 0-226.987-184.747-411.307-411.307-411.307zM597.333 248.734c-64.853 0-117.333 52.48-117.333 117.333v57.6c0 64.853 52.48 117.333 117.333 117.333s117.333-52.48 117.333-117.333v-57.6c0-64.853-52.48-117.333-117.333-117.333zM597.333 476.574c-29.44 0-53.333-23.893-53.333-53.333v-57.6c0-29.44 23.893-53.333 53.333-53.333s53.333 23.893 53.333 53.333v57.6c0 29.44-23.893 53.333-53.333 53.333z" />
<glyph unicode="&#xe916;" glyph-name="backward-15-seconds" d="M615.74 238.067h-97.707c-17.493 0-32 14.507-32 32s14.507 32 32 32h97.707c18.347 0 33.28 14.933 33.28 33.28s-14.933 33.28-33.28 33.28h-97.707c-10.24 0-20.053 5.12-26.027 13.227s-7.68 19.2-4.267 29.013l32.427 97.707c4.267 13.227 16.64 21.76 30.293 21.76h130.56c17.493 0 32-14.507 32-32s-14.507-32-32-32h-107.52l-11.093-33.707h53.333c53.76 0 97.28-43.52 97.28-97.28s-43.947-97.28-97.28-97.28zM407.104 238.046c-17.493 0-32 14.507-32 32v144.64l-8.107-9.387c-11.947-13.227-32-14.080-45.227-2.56-13.227 11.947-14.080 32-2.56 45.227l64 71.253c8.96 9.813 23.041 13.227 35.414 8.533s20.479-16.64 20.479-29.867v-228.267c0-17.493-14.080-31.573-32-31.573zM427.605 737.345c-7.255 0-14.083 2.133-20.056 7.253-13.653 11.093-15.787 31.146-5.12 44.799l84.479 105.385c11.093 13.653 31.151 15.789 44.804 5.123s15.787-31.149 5.12-44.802l-84.484-105.385c-5.973-8.107-15.356-12.372-24.742-12.372zM511.974-10.615c-226.56 0-411.308 184.32-411.308 411.307 0 88.32 28.587 173.229 83.2 245.762 10.667 14.080 30.72 17.065 44.8 6.398s17.068-30.72 6.401-44.8c-46.080-61.44-70.401-133.121-70.401-207.361 0-191.573 155.734-347.307 347.308-347.307s347.307 155.733 347.307 347.307c0 191.575-155.733 347.309-347.307 347.309-24.747 0-49.92-2.988-77.227-9.388-17.494-3.84-34.561 6.827-38.401 23.893s6.827 34.561 23.893 38.401c32.001 7.253 62.295 11.094 91.735 11.094 226.56 0 411.307-184.32 411.307-411.309 0-226.987-184.747-411.307-411.307-411.307z" />
<glyph unicode="&#xe917;" glyph-name="camera" d="M735.642-10.667h-447.145c-119.467 0-195.413 71.253-202.24 190.293l-22.187 352c-3.413 53.333 14.933 104.533 51.627 143.36 36.267 38.827 87.467 61.013 140.373 61.013 13.653 0 26.88 8.107 33.28 20.907l30.72 61.013c25.173 49.92 88.32 88.747 143.358 88.747h97.707c55.040 0 117.76-38.827 142.933-88.32l30.72-62.293c6.4-11.947 19.2-20.053 33.28-20.053 52.907 0 104.107-22.187 140.373-61.013 36.693-39.253 55.040-90.027 51.627-143.36l-22.187-352.427c-7.68-120.747-81.493-189.867-202.24-189.867zM463.428 842.667c-31.573 0-71.678-24.747-86.185-53.333l-30.72-61.44c-17.92-34.56-52.48-55.893-90.453-55.893-35.84 0-69.12-14.507-93.867-40.533-24.32-26.027-36.693-60.16-34.133-95.573l22.187-352.427c5.12-86.187 51.627-130.133 138.24-130.133h447.145c86.187 0 132.693 43.947 138.24 130.133l22.187 352.427c2.133 35.413-9.813 69.547-34.133 95.573-24.747 26.027-58.027 40.533-93.867 40.533-37.973 0-72.533 21.333-90.453 55.040l-31.147 62.293c-14.080 28.16-54.187 52.907-85.76 52.907h-97.28v0.427zM576 586.667h-128c-17.493 0-32 14.507-32 32s14.507 32 32 32h128c17.493 0 32-14.507 32-32s-14.507-32-32-32zM512 160c-94.293 0-170.667 76.373-170.667 170.667s76.373 170.667 170.667 170.667c94.293 0 170.667-76.373 170.667-170.667s-76.373-170.667-170.667-170.667zM512 437.333c-58.88 0-106.667-47.787-106.667-106.667s47.787-106.667 106.667-106.667c58.88 0 106.667 47.787 106.667 106.667s-47.787 106.667-106.667 106.667z" />
<glyph unicode="&#xe918;" glyph-name="camera-slash" d="M384 501.333h-128c-17.493 0-32 14.507-32 32s14.507 32 32 32h128c17.493 0 32-14.507 32-32s-14.507-32-32-32zM735.646-10.586h-447.146c-17.493 0-32 14.507-32 32s14.507 32 32 32h447.146c86.187 0 132.693 43.947 138.24 130.133l22.187 352.427c2.133 30.293-6.827 60.16-25.173 84.48-10.667 14.080-7.68 34.133 6.4 44.8s34.133 7.68 44.8-6.4c27.307-36.693 40.96-81.493 37.973-127.147l-22.187-352.427c-7.68-120.747-81.493-189.867-202.24-189.867zM146.843 55.040c-10.24 0-20.48 5.12-26.88 14.507-19.627 29.867-31.147 66.987-33.707 110.080l-22.187 352c-3.413 53.333 14.933 104.533 51.627 143.36 36.267 38.827 87.467 61.013 140.373 61.013 13.653 0 26.88 8.107 33.28 20.907l30.72 61.013c25.173 49.92 88.32 88.747 143.358 88.747h97.707c55.040 0 117.76-38.827 142.933-88.32l30.72-62.293c6.4-11.947 19.2-20.053 33.28-20.053 17.493 0 32-14.507 32-32s-14.507-32-32-32c-37.973 0-72.533 21.333-90.453 55.040l-31.147 62.293c-14.080 28.16-54.187 52.907-85.76 52.907h-97.707c-31.573 0-71.678-24.747-86.185-53.333l-30.293-61.013c-17.92-34.56-52.48-55.893-90.453-55.893-35.84 0-69.12-14.507-93.867-40.533-24.32-26.027-36.693-60.16-34.133-95.573l22.187-352.427c1.707-31.147 9.813-58.453 23.467-78.507 9.813-14.933 5.547-34.56-8.96-44.373-5.547-3.84-11.947-5.547-17.92-5.547zM512.068 160.077c-37.973 0-75.093 12.8-104.959 36.267-14.080 11.093-16.213 31.147-5.547 44.8 11.093 14.080 31.145 16.213 44.799 5.547 18.773-14.507 41.813-22.613 65.707-22.613 58.88 0 106.667 47.787 106.667 106.667 0 20.48-5.547 40.107-16.213 56.747-9.387 14.933-5.12 34.56 9.813 44.373 14.933 9.387 34.56 5.12 44.373-9.813 17.067-26.88 26.453-58.453 26.453-90.88-0.427-94.72-76.8-171.093-171.093-171.093zM85.393-10.726c-8.107 0-16.213 2.987-22.613 9.387-12.373 12.373-12.373 32.853 0 45.227l853.333 853.333c12.373 12.373 32.853 12.373 45.227 0s12.373-32.853 0-45.227l-853.333-853.333c-6.4-6.4-14.507-9.387-22.613-9.387z" />
<glyph unicode="&#xe919;" glyph-name="devices" d="M512.034 131.388c-65.707 0-131.414 25.173-181.334 75.093-100.267 100.267-100.267 262.827 0 363.092 48.64 48.64 113.068 75.094 181.334 75.094s133.12-26.88 181.333-75.094c100.267-100.265 100.267-262.825 0-363.092-49.92-49.92-115.627-75.093-181.333-75.093zM512.034 580.24c-51.2 0-99.841-20.051-136.108-56.319-75.093-75.093-75.093-197.12 0-272.213s197.121-74.667 272.214 0c75.093 75.093 75.093 197.12 0 272.213-36.267 36.268-84.907 56.319-136.107 56.319zM444.228 288.009c-8.107 0-16.64 2.982-22.615 9.382-12.373 12.373-12.373 32.853 0 45.653l67.842 67.844c12.373 12.373 32.853 12.373 45.653 0 12.373-12.373 12.373-32.858 0-45.658l-67.84-67.84c-6.827-6.4-14.933-9.382-23.040-9.382zM801.745 639.552c-10.24 0-19.627 3.84-26.88 11.094-14.933 14.933-14.933 39.254 0 53.76 7.253 7.253 16.64 11.094 26.88 11.094s19.627-3.84 26.88-11.094c7.253-7.253 11.093-16.64 11.093-26.88s-3.84-19.627-11.093-26.88c-6.827-7.253-16.64-11.094-26.88-11.094zM798.758 680.94v-6.401c0.853-0.853 2.133-1.279 3.413-1.279 5.12 2.987 5.12 5.973 2.987 7.68h-6.4zM801.638 628.958c-13.227 0-25.173 5.121-34.56 14.508-18.773 18.773-18.773 49.92 0 69.12 9.387 9.387 21.333 14.081 34.56 14.081s25.173-5.121 34.56-14.508c9.387-9.387 14.080-21.333 14.080-34.56s-5.12-25.173-14.507-34.56c-8.533-8.96-20.907-14.081-34.133-14.081zM790.972 666.932c2.987-2.987 6.827-4.266 10.667-4.266s7.68 1.706 10.667 4.266c5.973 5.973 5.973 15.36 0 21.333-5.547 5.547-15.787 5.547-21.333 0-2.56-2.56-4.267-6.4-4.267-10.667 0-3.84 1.28-7.68 4.267-10.667zM222.306 60.22c-9.813 0-19.627 3.84-26.88 11.093s-11.092 17.067-11.092 26.88c0 10.24 3.839 19.627 11.092 26.88s16.64 11.093 26.88 11.093c10.24 0 19.627-3.84 26.88-11.093 14.933-14.933 14.933-39.253 0-53.76-7.253-7.253-17.067-11.093-26.88-11.093zM221.453 102.46c-0.853 0-1.707-0.427-2.56-1.28-1.707-1.707-1.707-4.693 0-6.4 0.853-0.853 2.134-1.28 2.987-1.28l4.265 4.267c-1.28 3.84-2.986 4.693-4.692 4.693zM222.233 49.553c-12.373 0-25.173 4.693-34.56 14.080s-14.507 21.76-14.507 34.56c0 13.227 5.12 25.173 14.507 34.56 8.96 8.96 21.333 14.080 34.56 14.080s25.173-5.12 34.56-14.507c19.2-19.2 19.2-49.92 0-69.12-9.387-8.96-22.187-13.653-34.56-13.653zM222.233 113.553c-3.84 0-7.68-1.28-10.667-4.267-5.973-5.973-5.973-15.36 0-21.333 2.987-2.987 6.827-4.267 10.667-4.267s8.107 1.707 10.667 4.693c2.56 2.56 4.267 6.4 4.267 10.667 0 3.84-1.707 8.107-4.267 10.667-2.987 2.133-6.827 3.84-10.667 3.84zM921.579 349.794c-9.813 0-19.627 3.84-26.88 11.093-14.933 14.933-14.933 39.253 0 54.187 7.253 7.253 17.067 8.96 26.88 11.093 10.24 0 19.627-3.84 26.88-11.093 14.933-14.933 14.933-39.253 0-54.187-7.253-7.253-17.067-11.093-26.88-11.093zM918.592 384.781c0.853-0.853 2.133-1.28 3.413-1.28 4.693 2.987 4.693 5.973 2.987 7.68s-4.693 1.707-6.4 0c-1.707-1.707-1.707-4.693 0-6.4zM921.626 339.127c-12.373 0-25.173 4.693-34.56 14.080-19.2 19.2-19.2 49.92 0 69.12 9.387 9.387 21.333 14.507 34.56 14.507s25.173-5.12 34.56-14.507c19.2-19.2 19.2-49.92 0-69.12-9.387-9.387-21.76-14.080-34.56-14.080zM910.959 377.101c2.987-2.987 6.827-4.267 10.667-4.267s7.68 1.707 10.667 4.267c5.973 5.973 5.973 15.36 0 21.333s-15.36 5.973-21.333 0c-5.547-5.547-5.973-15.36 0-21.333zM102.414 349.854c-9.813 0-19.627 3.84-26.88 11.093-14.933 14.933-14.933 39.253 0 54.187s39.254 14.933 54.188 0c14.933-14.933 14.933-39.253 0-54.187-8.107-7.253-17.92-11.093-27.307-11.093zM99.001 384.841c1.707-1.707 4.693-1.707 6.4 0s1.707 4.693 0 6.4c-1.707 1.707-4.693 1.707-6.4 0s-1.707-4.693 0-6.4zM102.46 339.226c-12.373 0-25.173 4.693-34.56 14.080-19.2 19.2-19.2 49.92 0 69.12s50.346 18.773 69.12 0c19.2-19.2 19.2-49.92 0-69.12-9.813-9.387-22.187-14.080-34.56-14.080zM91.367 377.199c5.973-5.973 15.36-5.973 21.333 0s5.973 15.787 0 21.333c-5.973 5.973-15.36 5.973-21.333 0-5.547-5.547-5.547-15.36 0-21.333zM801.745 60.186c-9.813 0-19.627 3.84-26.88 11.093-14.933 14.933-14.933 39.253 0 54.187s39.253 14.933 54.187 0c7.253-7.253 11.093-16.64 11.093-26.88s-3.84-19.627-11.093-26.88c-7.68-7.68-17.493-11.52-27.307-11.52zM801.745 102.852c-1.28 0-2.133-0.427-2.987-1.28v-6.4c1.707-1.707 4.693-1.707 6.4 0s1.707 4.693 0 6.4c-1.28 0.853-2.133 1.28-3.413 1.28zM801.626 49.566c-12.373 0-25.173 4.693-34.56 14.080-19.2 19.2-19.2 49.92 0 69.12s49.92 19.2 69.12 0c9.387-9.387 14.507-21.333 14.507-34.56s-5.12-25.173-14.507-34.56c-9.387-9.387-22.187-14.080-34.56-14.080zM790.959 87.539c5.973-5.973 15.36-5.973 21.333 0s5.973 15.36 0 21.333c-5.973 5.973-15.36 5.973-21.333 0-2.987-2.987-4.267-6.827-4.267-10.667s1.28-7.68 4.267-10.667zM222.306 639.552c-10.24 0-19.627 3.84-26.88 11.094s-11.092 16.64-11.092 26.88c0 10.24 3.839 19.627 11.092 26.88s16.64 11.094 26.88 11.094c10.24 0 19.627-3.84 26.88-11.094 14.933-14.933 14.933-39.254 0-54.188-7.253-6.827-16.64-10.667-26.88-10.667zM218.893 674.539c0.853-0.853 2.134-1.279 2.987-1.279l4.265 4.266-4.265 4.265c-4.693-2.56-4.694-5.546-2.987-7.252zM222.306 628.958c-13.227 0-25.173 5.121-34.56 14.508-8.96 8.96-14.080 21.333-14.080 34.56s5.12 25.173 14.507 34.56c8.96 8.96 21.333 14.081 34.56 14.081s25.173-5.121 34.56-14.508c18.773-19.2 18.773-49.92 0-69.12-9.813-8.96-21.76-14.081-34.987-14.081zM211.639 666.932c2.987-2.987 6.827-4.693 10.667-4.693s7.68 1.706 10.667 4.266c2.987 2.56 4.267 6.827 4.267 10.667s-1.706 8.107-4.692 10.667c-5.12 5.547-15.787 5.547-21.333 0-5.547-5.12-5.548-14.933 0.426-20.906zM511.974 759.446c-10.24 0-19.627 3.84-26.88 11.094s-11.093 16.64-11.093 26.88c0 10.24 3.84 19.627 11.093 26.88 14.933 14.933 39.253 14.933 54.187 0s14.933-39.254 0-53.76c-7.253-6.827-17.067-11.094-27.307-11.094zM514.961 800.834l-6.4-6.401c1.707-1.707 4.693-1.707 6.4 0v6.401zM508.988 800.834c-1.707-1.707-1.707-4.694 0-6.401l6.4 6.401h-6.4zM511.974 748.806c-13.227 0-25.173 5.121-34.56 14.508-8.96 8.96-14.080 21.333-14.080 34.56s5.12 25.173 14.507 34.56c19.2 19.2 49.92 19.2 69.12 0 18.773-19.2 18.773-49.92 0-69.12-9.387-9.387-21.76-14.508-34.987-14.508zM522.641 808.54l-21.333-21.333c5.973-5.973 15.36-5.973 21.333 0 2.987 2.987 4.267 6.827 4.267 10.667s-1.28 7.68-4.267 10.667zM511.974 812.806c-3.84 0-8.107-1.706-10.667-4.692-5.973-5.973-5.973-15.36 0-21.333l21.333 21.333c-2.56 2.987-6.4 4.692-10.667 4.692z" />
<glyph unicode="&#xe91a;" glyph-name="forward" d="M168.534 176.7c-19.627 0-39.68 5.12-57.6 15.787-36.267 20.907-57.6 58.027-57.6 99.84v312.32c0 41.813 21.334 78.933 57.6 99.84s79.359 20.907 115.199 0l270.507-156.16c12.373-7.253 22.187-15.787 29.867-25.173 4.693-5.547 7.253-12.8 7.253-20.053v-109.227c0-7.253-2.56-14.507-7.253-20.053-7.68-9.387-17.493-17.92-29.013-24.747l-271.36-157.013c-17.92-10.24-37.546-15.36-57.599-15.36zM168.534 655.419c-8.96 0-17.493-2.132-25.6-6.825-16.213-9.387-25.6-26.027-25.6-44.374v-312.32c0-18.347 9.387-34.987 25.6-44.373s34.986-9.387 51.199 0l270.507 156.16c1.707 0.853 3.413 2.133 4.693 3.413v82.347c-1.707 1.28-3.413 2.56-5.12 3.413l-270.080 155.734c-8.107 4.693-16.639 6.825-25.599 6.825zM584.866 176.7c-19.627 0-39.68 5.12-57.6 15.787-36.267 20.907-57.6 58.027-57.6 99.84v312.32c0 41.813 21.333 78.933 57.6 99.84s79.36 20.907 115.2 0l270.507-156.16c35.84-20.907 57.6-58.027 57.6-99.84s-21.333-78.933-57.6-99.84l-270.507-156.16c-17.92-10.667-37.973-15.787-57.6-15.787zM584.866 655.419c-8.96 0-17.493-2.132-25.6-6.825-16.213-9.387-25.6-25.6-25.6-44.374v-312.32c0-18.347 9.387-34.987 25.6-44.373s35.413-9.387 51.2 0l270.507 156.16c16.213 9.387 25.6 26.027 25.6 44.373s-9.387 34.987-25.6 44.373l-270.507 156.16c-8.107 4.693-16.64 6.825-25.6 6.825z" />
<glyph unicode="&#xe91b;" glyph-name="forward-5-seconds" d="M596.467 737.304c-9.387 0-18.769 4.265-24.742 11.945l-84.484 105.388c-11.093 13.653-8.96 34.133 5.12 44.8s33.711 8.96 44.804-5.12l84.48-105.388c11.093-13.653 8.96-34.133-5.12-44.8-5.973-4.267-13.231-6.825-20.058-6.825zM511.974-10.615c-226.56 0-411.308 184.32-411.308 411.307s184.32 411.309 411.308 411.309c29.44 0 59.307-3.414 91.733-11.094 17.067-3.84 28.16-21.334 23.893-38.401-3.84-17.067-20.907-28.16-38.4-23.893-27.307 6.4-52.907 9.388-77.227 9.388-191.574 0-347.308-155.734-347.308-347.309 0-191.573 155.734-347.307 347.308-347.307s347.307 155.733 347.307 347.307c0 74.24-24.32 145.921-70.4 207.361-10.667 14.080-7.68 34.133 6.4 44.8s34.133 7.682 44.8-6.398c54.613-72.533 83.2-157.442 83.2-245.762 0-226.987-184.747-411.307-411.307-411.307zM528.239 238.067h-97.707c-17.491 0-31.998 14.507-31.998 32s14.507 32 31.998 32h97.707c18.347 0 33.28 14.933 33.28 33.28s-14.933 33.28-33.28 33.28h-97.707c-10.238 0-20.053 5.12-26.027 13.227s-7.679 19.2-4.266 29.013l32.426 97.707c4.267 13.227 16.64 21.76 30.293 21.76h130.56c17.493 0 32-14.507 32-32s-14.507-32-32-32h-107.52l-11.093-33.707h53.333c53.76 0 97.28-43.52 97.28-97.28s-43.52-97.28-97.28-97.28z" />
<glyph unicode="&#xe91c;" glyph-name="forward-10-seconds" d="M596.467 737.292c-9.387 0-18.773 4.265-24.747 11.945l-84.48 105.388c-11.093 13.653-8.96 34.133 5.12 44.8 13.653 11.093 33.707 8.96 44.8-5.12l84.48-105.388c11.093-13.653 8.96-34.132-5.12-44.799-5.973-4.267-13.227-6.826-20.053-6.826zM511.974-10.615c-226.56 0-411.308 184.32-411.308 411.307s184.32 411.309 411.308 411.309c29.44 0 59.307-3.414 91.733-11.094 17.067-3.84 28.16-21.334 23.893-38.401-3.84-17.067-20.907-28.16-38.4-23.893-27.307 6.4-52.907 9.388-77.227 9.388-191.574 0-347.308-155.734-347.308-347.309 0-191.573 155.734-347.307 347.308-347.307s347.307 155.733 347.307 347.307c0 74.24-24.32 145.921-70.4 207.361-10.667 14.080-7.68 34.133 6.4 44.8s34.133 7.682 44.8-6.398c54.613-72.533 83.2-157.442 83.2-245.762 0-226.987-184.747-411.307-411.307-411.307zM407.104 248.785c-17.493 0-32 14.507-32 32v144.64l-8.107-8.96c-11.947-13.227-32-14.080-45.227-2.56-13.227 11.947-14.080 32-2.56 45.227l64 71.253c8.96 9.813 23.040 13.227 35.413 8.534s20.48-16.64 20.48-29.867v-228.267c0-17.92-14.080-32-32-32zM597.333 248.734c-64.853 0-117.333 52.48-117.333 117.333v57.6c0 64.853 52.48 117.333 117.333 117.333s117.333-52.48 117.333-117.333v-57.6c0-64.853-52.48-117.333-117.333-117.333zM597.333 476.574c-29.44 0-53.333-23.893-53.333-53.333v-57.6c0-29.44 23.893-53.333 53.333-53.333s53.333 23.893 53.333 53.333v57.6c0 29.44-23.893 53.333-53.333 53.333z" />
<glyph unicode="&#xe91d;" glyph-name="forward-15-seconds" d="M615.74 238.067h-97.707c-17.493 0-32 14.507-32 32s14.507 32 32 32h97.707c18.347 0 33.28 14.933 33.28 33.28s-14.933 33.28-33.28 33.28h-97.707c-10.24 0-20.053 5.12-26.027 13.227s-7.68 19.2-4.267 29.013l32.427 97.707c4.267 13.227 16.64 21.76 30.293 21.76h130.56c17.493 0 32-14.507 32-32s-14.507-32-32-32h-107.52l-11.093-33.707h53.333c53.76 0 97.28-43.52 97.28-97.28s-43.947-97.28-97.28-97.28zM407.104 238.046c-17.493 0-32 14.507-32 32v144.64l-8.107-9.387c-11.947-13.227-32-14.080-45.227-2.56-13.227 11.947-14.080 32-2.56 45.227l64 71.253c8.96 9.813 23.041 13.227 35.414 8.533s20.479-16.64 20.479-29.867v-228.267c0-17.493-14.080-31.573-32-31.573zM596.467 737.292c-9.387 0-18.769 4.265-24.742 11.945l-84.484 105.388c-11.093 13.653-8.96 34.133 5.12 44.8 13.653 11.093 33.711 8.96 44.804-5.12l84.48-105.388c11.093-13.653 8.96-34.132-5.12-44.799-5.973-4.267-13.231-6.826-20.058-6.826zM511.974-10.615c-226.56 0-411.308 184.32-411.308 411.307s184.32 411.309 411.308 411.309c29.44 0 59.307-3.414 91.733-11.094 17.067-3.84 28.16-21.334 23.893-38.401-3.84-17.067-21.333-28.16-38.4-23.893-27.307 6.4-52.907 9.388-77.227 9.388-191.574 0-347.308-155.734-347.308-347.309 0-191.573 155.734-347.307 347.308-347.307s347.307 155.733 347.307 347.307c0 74.24-24.32 145.921-70.4 207.361-10.667 14.080-7.68 34.133 6.4 44.8s34.133 7.682 44.8-6.398c54.613-72.533 83.2-157.442 83.2-245.762 0-226.987-184.747-411.307-411.307-411.307z" />
<glyph unicode="&#xe91e;" glyph-name="gallery" d="M640-10.667h-256c-231.68 0-330.667 98.987-330.667 330.667v256c0 231.68 98.987 330.667 330.667 330.667h256c231.68 0 330.667-98.987 330.667-330.667v-256c0-231.68-98.987-330.667-330.667-330.667zM384 842.667c-196.693 0-266.667-69.973-266.667-266.667v-256c0-196.693 69.973-266.667 266.667-266.667h256c196.693 0 266.667 69.973 266.667 266.667v256c0 196.693-69.973 266.667-266.667 266.667h-256zM384 501.333c-64.853 0-117.333 52.48-117.333 117.333s52.48 117.333 117.333 117.333c64.853 0 117.333-52.48 117.333-117.333s-52.48-117.333-117.333-117.333zM384 672c-29.44 0-53.333-23.893-53.333-53.333s23.893-53.333 53.333-53.333c29.44 0 53.333 23.893 53.333 53.333s-23.893 53.333-53.333 53.333zM113.869 119.526c-10.24 0-20.48 5.12-26.453 14.080-9.813 14.507-5.973 34.56 8.96 44.373l210.347 141.227c46.080 31.147 109.653 27.307 151.467-8.107l14.080-12.373c21.333-18.347 57.6-18.347 78.507 0l177.493 152.32c45.227 38.827 116.48 38.827 162.133 0l69.547-59.733c13.227-11.52 14.933-31.573 3.413-45.227-11.52-13.227-31.573-14.933-45.227-3.413l-69.547 59.733c-21.333 18.347-57.6 18.347-78.933 0l-177.493-152.32c-45.227-38.827-116.48-38.827-162.133 0l-14.080 12.373c-19.627 16.64-52.053 18.347-73.813 3.413l-210.347-141.227c-5.547-3.413-11.947-5.12-17.92-5.12z" />
<glyph unicode="&#xe91f;" glyph-name="gallery-add" d="M384 501.333c-64.853 0-117.333 52.48-117.333 117.333s52.48 117.333 117.333 117.333c64.853 0 117.333-52.48 117.333-117.333s-52.48-117.333-117.333-117.333zM384 672c-29.44 0-53.333-23.893-53.333-53.333s23.893-53.333 53.333-53.333c29.44 0 53.333 23.893 53.333 53.333s-23.893 53.333-53.333 53.333zM640-10.667h-256c-231.68 0-330.667 98.987-330.667 330.667v256c0 231.68 98.987 330.667 330.667 330.667h170.667c17.493 0 32-14.507 32-32s-14.507-32-32-32h-170.667c-196.693 0-266.667-69.973-266.667-266.667v-256c0-196.693 69.973-266.667 266.667-266.667h256c196.693 0 266.667 69.973 266.667 266.667v213.333c0 17.493 14.507 32 32 32s32-14.507 32-32v-213.333c0-231.68-98.987-330.667-330.667-330.667zM906.667 714.667h-234.667c-17.493 0-32 14.507-32 32s14.507 32 32 32h234.667c17.493 0 32-14.507 32-32s-14.507-32-32-32zM789.333 597.333c-17.493 0-32 14.507-32 32v234.667c0 17.493 14.507 32 32 32s32-14.507 32-32v-234.667c0-17.493-14.507-32-32-32zM113.891 119.526c-10.24 0-20.48 5.12-26.453 14.080-9.813 14.507-5.973 34.56 8.533 44.373l210.347 141.227c46.080 30.72 109.653 27.307 151.466-8.107l14.080-12.373c21.333-18.347 57.6-18.347 78.507 0l177.493 152.32c45.653 38.827 116.48 38.827 162.133 0l69.547-59.733c13.227-11.52 14.933-31.573 3.413-45.227-11.52-13.227-31.573-14.933-45.227-3.413l-69.547 59.733c-21.333 18.347-57.6 18.347-78.507 0l-177.493-152.32c-45.227-38.827-116.48-38.827-162.133 0l-14.079 12.373c-19.627 16.64-52.053 18.347-73.813 3.413l-209.92-141.227c-5.973-3.413-12.373-5.12-18.347-5.12z" />
<glyph unicode="&#xe920;" glyph-name="gallery-edit" d="M384 501.333c-64.853 0-117.333 52.48-117.333 117.333s52.48 117.333 117.333 117.333c64.853 0 117.333-52.48 117.333-117.333s-52.48-117.333-117.333-117.333zM384 672c-29.44 0-53.333-23.893-53.333-53.333s23.893-53.333 53.333-53.333c29.44 0 53.333 23.893 53.333 53.333s-23.893 53.333-53.333 53.333zM640-10.667h-256c-231.68 0-330.667 98.987-330.667 330.667v256c0 231.68 98.987 330.667 330.667 330.667h170.667c17.493 0 32-14.507 32-32s-14.507-32-32-32h-170.667c-196.693 0-266.667-69.973-266.667-266.667v-256c0-196.693 69.973-266.667 266.667-266.667h256c196.693 0 266.667 69.973 266.667 266.667v213.333c0 17.493 14.507 32 32 32s32-14.507 32-32v-213.333c0-231.68-98.987-330.667-330.667-330.667zM668.625 543.94c-16.64 0-32 5.973-43.093 17.493-13.227 13.227-19.627 32.853-16.64 52.907l8.533 59.307c2.133 14.933 11.093 33.28 22.187 43.947l154.88 154.88c61.867 61.866 115.627 26.453 142.080 0 25.173-25.173 36.693-51.627 34.133-78.933-2.133-21.76-13.227-42.667-34.133-63.147l-154.88-154.88c-10.667-10.667-29.013-19.627-43.947-22.187l-59.307-8.533c-3.413-0.853-6.827-0.853-9.813-0.853zM839.292 826.82l-154.88-154.88c-1.28-1.28-3.413-5.973-3.84-8.107l-8.107-55.467 55.893 7.68c1.707 0.427 6.4 2.56 8.107 4.267l154.88 154.88c9.387 9.387 14.933 17.92 15.36 24.32 0.853 8.96-8.107 20.053-15.36 27.307-22.187 22.187-32.427 19.627-52.053 0zM891.746 698.422c-2.987 0-5.973 0.427-8.533 1.28-57.173 16.213-102.827 61.867-119.040 119.040-4.693 17.067 5.12 34.56 22.187 39.253s34.56-5.12 39.253-22.187c10.24-35.84 38.827-64.853 75.093-75.093 17.067-4.693 26.88-22.613 22.187-39.253-4.693-13.653-17.493-23.040-31.147-23.040zM113.891 119.526c-10.24 0-20.48 5.12-26.453 14.080-9.813 14.507-5.973 34.56 8.533 44.373l210.347 141.227c46.080 30.72 109.653 27.307 151.466-8.107l14.080-12.373c21.333-18.347 57.6-18.347 78.507 0l177.493 152.32c45.227 38.827 116.48 38.827 162.133 0l69.547-59.733c13.227-11.52 14.933-31.573 3.413-45.227-11.52-13.227-31.573-14.933-45.227-3.413l-69.547 59.733c-21.333 18.347-57.6 18.347-78.507 0l-177.493-152.32c-45.227-38.827-116.48-38.827-162.133 0l-14.079 12.373c-19.627 16.64-52.053 18.347-73.813 3.413l-209.92-141.227c-5.973-3.413-12.373-5.12-18.347-5.12z" />
<glyph unicode="&#xe921;" glyph-name="gallery-export" d="M384 501.333c-64.853 0-117.333 52.48-117.333 117.333s52.48 117.333 117.333 117.333c64.853 0 117.333-52.48 117.333-117.333s-52.48-117.333-117.333-117.333zM384 672c-29.44 0-53.333-23.893-53.333-53.333s23.893-53.333 53.333-53.333c29.44 0 53.333 23.893 53.333 53.333s-23.893 53.333-53.333 53.333zM640-10.667h-256c-231.68 0-330.667 98.987-330.667 330.667v256c0 231.68 98.987 330.667 330.667 330.667h170.667c17.493 0 32-14.507 32-32s-14.507-32-32-32h-170.667c-196.693 0-266.667-69.973-266.667-266.667v-256c0-196.693 69.973-266.667 266.667-266.667h256c196.693 0 266.667 69.973 266.667 266.667v213.333c0 17.493 14.507 32 32 32s32-14.507 32-32v-213.333c0-231.68-98.987-330.667-330.667-330.667zM768 586.586c-17.493 0-32 14.507-32 32v256c0 12.8 7.68 24.747 19.627 29.44s25.6 2.133 34.987-6.827l85.333-85.333c12.373-12.373 12.373-32.853 0-45.227s-32.853-12.373-45.227 0l-30.72 30.72v-178.773c0-17.493-14.507-32-32-32zM682.726 757.273c-8.107 0-16.213 2.987-22.613 9.387-12.373 12.373-12.373 32.853 0 45.227l85.333 85.333c12.373 12.373 32.853 12.373 45.227 0s12.373-32.853 0-45.227l-85.333-85.333c-6.4-6.4-14.507-9.387-22.613-9.387zM113.891 119.526c-10.24 0-20.48 5.12-26.453 14.080-9.813 14.507-5.973 34.56 8.533 44.373l210.347 141.227c46.080 30.72 109.653 27.307 151.466-8.107l14.080-12.373c21.333-18.347 57.6-18.347 78.507 0l177.493 152.32c45.227 38.827 116.48 38.827 162.133 0l69.547-59.733c13.227-11.52 14.933-31.573 3.413-45.227-11.52-13.227-32-14.933-45.227-3.413l-69.547 59.733c-21.333 18.347-57.173 18.347-78.507 0l-177.493-152.32c-45.227-38.827-116.48-38.827-162.133 0l-14.079 12.373c-19.627 16.64-52.053 18.347-73.813 3.413l-209.92-141.227c-5.973-3.413-12.373-5.12-18.347-5.12z" />
<glyph unicode="&#xe922;" glyph-name="gallery-favorite" d="M384 501.333c-64.853 0-117.333 52.48-117.333 117.333s52.48 117.333 117.333 117.333c64.853 0 117.333-52.48 117.333-117.333s-52.48-117.333-117.333-117.333zM384 672c-29.44 0-53.333-23.893-53.333-53.333s23.893-53.333 53.333-53.333c29.44 0 53.333 23.893 53.333 53.333s-23.893 53.333-53.333 53.333zM640-10.667h-256c-231.68 0-330.667 98.987-330.667 330.667v256c0 231.68 98.987 330.667 330.667 330.667h128c17.493 0 32-14.507 32-32s-14.507-32-32-32h-128c-196.693 0-266.667-69.973-266.667-266.667v-256c0-196.693 69.973-266.667 266.667-266.667h256c196.693 0 266.667 69.973 266.667 266.667v170.667c0 17.493 14.507 32 32 32s32-14.507 32-32v-170.667c0-231.68-98.987-330.667-330.667-330.667zM808.171 603.372c-37.12 0-124.16 45.653-151.040 128.853-18.347 57.6 2.987 133.12 69.547 154.453 28.16 8.96 57.6 5.12 81.067-9.387 23.040 14.507 53.333 18.773 81.92 9.387 66.56-21.333 87.893-96.853 69.547-154.453-26.88-84.907-118.187-128.853-151.040-128.853zM718.144 751.852c18.347-56.747 79.782-83.2 90.876-84.48 12.373 1.28 72.538 31.147 89.178 84.48 8.96 28.587 0 64.853-28.16 74.24-11.947 3.84-27.733 1.707-34.987-9.387-5.973-8.96-15.791-14.507-26.031-14.507-9.813 0-20.476 4.693-26.449 13.227-8.96 12.373-24.747 14.080-35.84 10.667-28.587-9.387-37.547-45.653-28.587-74.24zM113.869 119.526c-10.24 0-20.48 5.12-26.453 14.080-9.813 14.507-5.973 34.56 8.96 44.373l210.347 141.227c46.080 31.147 109.653 27.307 151.467-8.107l14.080-12.373c21.333-18.347 57.6-18.347 78.507 0l177.493 152.32c45.227 38.827 116.48 38.827 162.133 0l69.547-59.733c13.227-11.52 14.933-31.573 3.413-45.227-11.52-13.227-31.573-14.933-45.227-3.413l-69.547 59.733c-21.333 18.347-57.6 18.347-78.933 0l-177.493-152.32c-45.227-38.827-116.48-38.827-162.133 0l-14.080 12.373c-19.627 16.64-52.053 18.347-73.813 3.413l-210.347-141.227c-5.547-3.413-11.947-5.12-17.92-5.12z" />
<glyph unicode="&#xe923;" glyph-name="gallery-import" d="M384 501.333c-64.853 0-117.333 52.48-117.333 117.333s52.48 117.333 117.333 117.333c64.853 0 117.333-52.48 117.333-117.333s-52.48-117.333-117.333-117.333zM384 672c-29.44 0-53.333-23.893-53.333-53.333s23.893-53.333 53.333-53.333c29.44 0 53.333 23.893 53.333 53.333s-23.893 53.333-53.333 53.333zM640-10.667h-256c-231.68 0-330.667 98.987-330.667 330.667v256c0 231.68 98.987 330.667 330.667 330.667h170.667c17.493 0 32-14.507 32-32s-14.507-32-32-32h-170.667c-196.693 0-266.667-69.973-266.667-266.667v-256c0-196.693 69.973-266.667 266.667-266.667h256c196.693 0 266.667 69.973 266.667 266.667v213.333c0 17.493 14.507 32 32 32s32-14.507 32-32v-213.333c0-231.68-98.987-330.667-330.667-330.667zM768 586.667c-4.267 0-8.107 0.853-12.373 2.56-11.947 4.693-19.627 16.64-19.627 29.44v256c0 17.493 14.507 32 32 32s32-14.507 32-32v-178.773l30.72 30.72c12.373 12.373 32.853 12.373 45.227 0s12.373-32.853 0-45.227l-85.333-85.333c-5.973-5.973-14.080-9.387-22.613-9.387zM768.060 586.607c-8.107 0-16.213 2.987-22.613 9.387l-85.333 85.333c-12.373 12.373-12.373 32.853 0 45.227s32.853 12.373 45.227 0l85.333-85.333c12.373-12.373 12.373-32.853 0-45.227-6.4-6.4-14.507-9.387-22.613-9.387zM113.869 119.526c-10.24 0-20.48 5.12-26.453 14.080-9.813 14.507-5.973 34.56 8.96 44.373l210.347 141.227c46.080 31.147 109.653 27.307 151.467-8.107l14.080-12.373c21.333-18.347 57.6-18.347 78.507 0l177.493 152.32c45.227 38.827 116.48 38.827 162.133 0l69.547-59.733c13.227-11.52 14.933-31.573 3.413-45.227-11.52-13.227-31.573-14.933-45.227-3.413l-69.547 59.733c-21.333 18.347-57.6 18.347-78.933 0l-177.493-152.32c-45.227-38.827-116.48-38.827-162.133 0l-14.080 12.373c-19.627 16.64-52.053 18.347-73.813 3.413l-210.347-141.227c-5.547-3.413-11.947-5.12-17.92-5.12z" />
<glyph unicode="&#xe924;" glyph-name="gallery-remove" d="M384 501.333c-64.853 0-117.333 52.48-117.333 117.333s52.48 117.333 117.333 117.333c64.853 0 117.333-52.48 117.333-117.333s-52.48-117.333-117.333-117.333zM384 672c-29.44 0-53.333-23.893-53.333-53.333s23.893-53.333 53.333-53.333c29.44 0 53.333 23.893 53.333 53.333s-23.893 53.333-53.333 53.333zM640-10.667h-256c-231.68 0-330.667 98.987-330.667 330.667v256c0 231.68 98.987 330.667 330.667 330.667h170.667c17.493 0 32-14.507 32-32s-14.507-32-32-32h-170.667c-196.693 0-266.667-69.973-266.667-266.667v-256c0-196.693 69.973-266.667 266.667-266.667h256c196.693 0 266.667 69.973 266.667 266.667v213.333c0 17.493 14.507 32 32 32s32-14.507 32-32v-213.333c0-231.68-98.987-330.667-330.667-330.667zM706.56 631.967c-8.107 0-16.213 2.987-22.613 9.387-12.373 12.373-12.373 32.853 0 45.227l165.973 165.973c12.373 12.373 32.853 12.373 45.227 0s12.373-32.853 0-45.227l-165.973-165.973c-6.4-6.4-14.507-9.387-22.613-9.387zM872.034 631.967c-8.107 0-16.213 2.987-22.613 9.387l-165.973 165.973c-12.373 12.373-12.373 32.853 0 45.227s32.853 12.373 45.227 0l165.973-165.973c12.373-12.373 12.373-32.853 0-45.227-5.973-6.4-14.080-9.387-22.613-9.387zM113.891 119.526c-10.24 0-20.48 5.12-26.453 14.080-9.813 14.507-5.973 34.56 8.533 44.373l210.347 141.227c46.080 30.72 109.653 27.307 151.466-8.107l14.080-12.373c21.333-18.347 57.6-18.347 78.507 0l177.493 152.32c45.227 38.827 116.48 38.827 162.133 0l69.547-59.733c13.227-11.52 14.933-31.573 3.413-45.227-11.52-13.227-31.573-14.933-45.227-3.413l-69.547 59.733c-21.333 18.347-57.6 18.347-78.507 0l-177.493-152.32c-45.227-38.827-116.48-38.827-162.133 0l-14.079 12.373c-19.627 16.64-52.053 18.347-73.813 3.413l-209.92-141.227c-5.973-3.413-12.373-5.12-18.347-5.12z" />
<glyph unicode="&#xe925;" glyph-name="gallery-slash" d="M144.213 70.4c-8.96 0-18.347 3.84-24.32 11.52-45.653 53.333-66.56 129.28-66.56 238.080v256c0 231.68 98.987 330.667 330.667 330.667h256c101.973 0 176.64-19.2 229.547-58.88 14.080-10.667 17.067-30.72 6.4-44.8s-30.72-17.067-44.8-6.4c-41.387 31.147-103.68 46.080-191.147 46.080h-256c-196.693 0-266.667-69.973-266.667-266.667v-256c0-91.733 16.64-156.16 51.2-197.12 11.52-13.653 9.813-33.707-3.84-45.227-5.973-4.693-13.227-7.253-20.48-7.253zM639.957-10.633h-255.999c-33.707 0-64 2.133-91.733 5.973-17.493 2.56-29.44 18.773-26.88 36.267s19.2 29.44 36.267 26.88c24.32-3.413 52.053-5.547 82.347-5.547h255.999c196.693 0 266.667 69.973 266.667 266.667v256.427c0 14.080-0.427 28.16-1.28 40.96-1.28 17.493 12.373 32.853 29.867 34.133 18.347 0.853 32.853-12.373 34.133-29.867 0.853-14.507 1.28-29.44 1.28-45.227v-256c0-231.68-98.987-330.667-330.667-330.667zM341.333 501.333c-64.853 0-117.333 52.48-117.333 117.333s52.48 117.333 117.333 117.333c64.853 0 117.333-52.48 117.333-117.333s-52.48-117.333-117.333-117.333zM341.333 672c-29.44 0-53.333-23.893-53.333-53.333s23.893-53.333 53.333-53.333c29.44 0 53.333 23.893 53.333 53.333s-23.893 53.333-53.333 53.333zM85.393-10.726c-8.107 0-16.213 2.987-22.613 9.387-12.373 12.373-12.373 32.853 0 45.227l853.333 853.333c12.373 12.373 32.853 12.373 45.227 0s12.373-32.853 0-45.227l-853.333-853.333c-6.4-6.4-14.507-9.387-22.613-9.387zM511.1 216.346c-16.64 0-33.28 6.4-45.653 18.773s-12.373 32.853 0 45.227c12.373 12.373 32.853 12.373 45.227 0 0.427-0.427 0.853-0.427 1.28 0l214.613 215.040c44.373 44.374 121.6 44.374 165.547 0l69.547-69.547c12.373-12.373 12.373-32.853 0-45.227s-32.853-12.373-45.227 0l-69.547 69.547c-20.053 20.053-55.040 20.053-75.093 0l-214.613-215.040c-12.8-12.373-29.44-18.773-46.080-18.773z" />
<glyph unicode="&#xe926;" glyph-name="gallery-tick" d="M384 501.333c-64.853 0-117.333 52.48-117.333 117.333s52.48 117.333 117.333 117.333c64.853 0 117.333-52.48 117.333-117.333s-52.48-117.333-117.333-117.333zM384 672c-29.44 0-53.333-23.893-53.333-53.333s23.893-53.333 53.333-53.333c29.44 0 53.333 23.893 53.333 53.333s-23.893 53.333-53.333 53.333zM640-10.667h-256c-231.68 0-330.667 98.987-330.667 330.667v256c0 231.68 98.987 330.667 330.667 330.667h170.667c17.493 0 32-14.507 32-32s-14.507-32-32-32h-170.667c-196.693 0-266.667-69.973-266.667-266.667v-256c0-196.693 69.973-266.667 266.667-266.667h256c196.693 0 266.667 69.973 266.667 266.667v213.333c0 17.493 14.507 32 32 32s32-14.507 32-32v-213.333c0-231.68-98.987-330.667-330.667-330.667zM745.020 652.873c-8.107 0-16.213 2.987-22.613 9.387l-62.293 62.293c-12.373 12.373-12.373 32.853 0 45.227s32.853 12.373 45.227 0l39.68-39.68 143.787 143.787c12.373 12.373 32.853 12.373 45.227 0s12.373-32.853 0-45.227l-166.4-166.4c-5.973-6.4-14.507-9.387-22.613-9.387zM113.869 119.526c-10.24 0-20.48 5.12-26.453 14.080-9.813 14.507-5.973 34.56 8.96 44.373l210.347 141.227c46.080 31.147 109.653 27.307 151.467-8.107l14.080-12.373c21.333-18.347 57.6-18.347 78.507 0l177.493 152.32c45.227 38.827 116.48 38.827 162.133 0l69.547-59.733c13.227-11.52 14.933-31.573 3.413-45.227-11.52-13.227-31.573-14.933-45.227-3.413l-69.547 59.733c-21.333 18.347-57.6 18.347-78.933 0l-177.493-152.32c-45.227-38.827-116.48-38.827-162.133 0l-14.080 12.373c-19.627 16.64-52.053 18.347-73.813 3.413l-210.347-141.227c-5.547-3.413-11.947-5.12-17.92-5.12z" />
<glyph unicode="&#xe927;" glyph-name="image" d="M783.394-10.641h-544.852c-64.853 0-124.16 32.853-158.293 88.32s-37.12 122.88-8.107 181.333l73.387 147.2c23.893 47.787 62.293 77.653 105.387 82.347s87.040-16.64 120.32-58.027l9.387-11.947c18.773-23.040 40.533-35.413 61.865-33.28 21.333 1.707 40.96 17.067 55.467 43.093l80.64 145.492c33.28 60.16 77.653 91.307 125.867 89.173 47.787-2.56 88.747-38.4 116.053-101.547l133.547-311.892c24.747-57.6 18.773-123.307-15.787-175.787-34.133-53.333-92.16-84.48-154.88-84.48zM262.863 424.559c-1.707 0-3.413 0-5.12-0.427-21.333-2.133-40.96-19.2-55.040-46.933l-73.387-147.2c-19.2-37.973-17.067-82.773 5.12-119.040s61.44-58.027 104.107-58.027h544.425c41.813 0 78.933 20.053 101.973 55.040s26.88 76.8 10.24 115.2l-133.547 311.892c-16.213 38.4-38.827 61.867-60.587 62.72-20.053 1.28-46.080-20.053-66.56-56.32l-80.64-145.492c-24.747-44.373-63.573-72.107-105.813-75.947-42.238-3.413-85.332 17.067-117.332 57.173l-9.387 11.947c-17.92 23.467-38.4 35.413-58.453 35.413zM297.333 586.667c-87.893 0-160 71.68-160 160s71.68 160 160 160c88.32 0 160.002-71.68 160.002-160s-71.682-160-160.002-160zM297.333 842.667c-52.907 0-96-43.093-96-96s43.093-96 96-96c52.907 0 96 43.093 96 96s-43.093 96-96 96z" />
<glyph unicode="&#xe928;" glyph-name="maximize-circle" d="M896 629.333c-17.493 0-32 14.507-32 32v138.667h-138.667c-17.493 0-32 14.507-32 32s14.507 32 32 32h170.667c17.493 0 32-14.507 32-32v-170.667c0-17.493-14.507-32-32-32zM640.060 543.939c-8.107 0-16.213 2.985-22.613 9.385-12.373 12.373-12.373 32.856 0 45.229l256 256c12.373 12.373 32.858 12.373 45.231 0s12.373-32.855 0-45.229l-256-256c-6.4-6.4-14.511-9.385-22.618-9.385zM298.667 32h-170.667c-17.493 0-32 14.507-32 32v170.667c0 17.493 14.507 32 32 32s32-14.507 32-32v-138.667h138.667c17.493 0 32-14.507 32-32s-14.507-32-32-32zM128.061 31.94c-8.107 0-16.215 2.982-22.615 9.382-12.373 12.373-12.373 32.858 0 45.231l256 256c12.373 12.373 32.856 12.373 45.229 0s12.373-32.858 0-45.231l-256-256c-6.4-6.4-14.508-9.382-22.614-9.382zM93.867 330.667c-14.933 0-28.162 10.667-31.148 25.6-5.973 29.867-9.385 61.013-9.385 91.733 0 253.013 205.653 458.667 458.667 458.667 31.147 0 62.293-2.985 92.587-9.385 17.493-3.413 28.587-20.48 25.173-37.547-3.413-17.493-20.907-28.161-37.547-25.174-26.027 5.12-52.907 8.107-79.787 8.107-217.6 0-394.666-177.067-394.666-394.667 0-26.453 2.56-53.333 8.107-78.933 3.413-17.493-7.681-34.133-25.174-37.547-2.56-0.853-4.692-0.853-6.826-0.853zM512.043-10.594c-31.147 0-62.293 2.982-92.585 9.382-17.493 3.413-28.588 20.48-25.175 37.547 3.413 17.493 20.907 28.164 37.547 25.178 26.027-5.12 52.907-8.107 79.787-8.107 217.6 0 394.667 177.067 394.667 394.667 0 26.453-2.56 52.902-7.68 78.929-3.413 17.495 7.68 34.135 25.173 37.549 17.067 3.413 34.133-7.679 37.547-25.172 5.973-29.866 8.96-60.586 8.96-91.306 0.427-253.013-205.227-458.667-458.24-458.667z" />
<glyph unicode="&#xe929;" glyph-name="microphone" d="M512 117.333c-158.72 0-288 129.28-288 288v213.333c0 158.72 129.28 288 288 288s288-129.28 288-288v-213.333c0-158.72-129.28-288-288-288zM512 842.667c-123.307 0-224-100.267-224-224v-213.333c0-123.733 100.693-224 224-224s224 100.267 224 224v213.333c0 123.733-100.693 224-224 224zM512-10.667c-229.547 0-416 186.453-416 416v85.333c0 17.493 14.507 32 32 32s32-14.507 32-32v-85.333c0-194.133 157.867-352 352-352s352 157.867 352 352v85.333c0 17.493 14.507 32 32 32s32-14.507 32-32v-85.333c0-229.547-186.453-416-416-416zM623.437 608.9c-3.413 0-7.253 0.427-11.093 1.707-68.693 24.747-144.213 24.747-212.905 0-16.213-5.973-34.56 2.56-40.533 19.2s2.56 34.987 19.2 40.96c82.772 29.867 173.652 29.867 256.425 0 16.64-5.973 25.173-24.32 19.2-40.96-4.693-13.227-17.067-20.907-30.293-20.907zM584.614 480.832c-2.56 0-5.547 0.427-8.533 1.28-45.653 12.373-93.867 12.373-139.52 0-17.495-4.693-34.561 5.547-39.255 22.613s5.547 34.561 22.613 39.255c56.748 15.36 116.481 15.36 173.228 0 17.067-4.693 27.307-22.188 22.613-39.255-4.267-14.933-17.067-23.893-31.147-23.893z" />
<glyph unicode="&#xe92a;" glyph-name="microphone-2" d="M512 266.667c-111.787 0-202.667 90.88-202.667 202.667v234.667c0 111.787 90.88 202.667 202.667 202.667s202.667-90.88 202.667-202.667v-234.667c0-111.787-90.88-202.667-202.667-202.667zM512 842.667c-76.373 0-138.667-62.293-138.667-138.667v-234.667c0-76.373 62.293-138.667 138.667-138.667s138.667 62.293 138.667 138.667v234.667c0 76.373-62.293 138.667-138.667 138.667zM512.068 117.402c-197.548 0-358.402 160.853-358.402 358.4v72.532c0 17.493 14.507 32 32 32s32-14.507 32-32v-72.532c0-162.133 132.267-294.4 294.402-294.4 162.133 0 294.4 132.267 294.4 294.4v72.532c0 17.493 14.507 32 32 32s32-14.507 32-32v-72.532c0-197.547-160.853-358.4-358.4-358.4zM571.383 653.64c-3.413 0-7.253 0.427-11.093 1.707-31.147 11.52-65.28 11.52-96.427 0-16.64-5.973-34.987 2.56-40.959 19.2-5.973 16.64 2.56 34.987 19.199 40.96 45.227 16.213 95.147 16.213 140.373 0 16.64-5.973 25.173-24.32 19.2-40.96-5.12-12.8-17.493-20.907-30.293-20.907zM546.052 563.187c-2.987 0-5.547 0.427-8.533 1.28-17.067 4.693-34.56 4.693-51.627 0s-34.56 5.547-39.253 22.613c-4.693 16.64 5.547 34.133 22.613 38.827 27.733 7.68 57.6 7.68 85.333 0 17.067-4.693 27.307-22.187 22.613-39.253-3.84-14.080-17.067-23.467-31.147-23.467zM512-10.667c-17.493 0-32 14.507-32 32v128c0 17.493 14.507 32 32 32s32-14.507 32-32v-128c0-17.493-14.507-32-32-32z" />
<glyph unicode="&#xe92b;" glyph-name="microphone-slash" d="M315.307 209.493c-8.96 0-18.347 3.84-24.747 11.52-43.093 51.627-66.56 116.907-66.56 184.32v213.333c0 158.72 129.28 288 288 288 132.267 0 247.040-89.6 279.467-217.6 4.267-17.067-5.973-34.56-23.040-38.827-16.64-4.267-34.56 5.973-38.827 23.040-25.6 99.84-114.773 169.387-217.6 169.387-123.307 0-224-100.267-224-224v-213.333c0-52.48 18.347-103.253 51.627-143.36 11.52-13.653 9.387-33.707-4.267-45.227-5.547-4.693-12.8-7.253-20.053-7.253zM512.077 117.312c-34.56 0-68.267 5.973-99.84 17.92-16.64 5.973-25.173 24.747-18.773 40.96 5.973 16.64 24.747 25.173 40.96 18.773 24.747-9.387 51.2-14.080 77.653-14.080 123.307 0 224 100.267 224 224v129.281c0 17.493 14.507 32 32 32s32-14.507 32-32v-128.855c0-158.72-129.28-288-288-288zM512.060-10.594c-105.815 0-206.508 39.68-283.735 111.787-12.8 11.947-13.653 32.427-1.707 45.227s32.427 13.653 45.227 1.707c65.28-61.013 150.613-94.293 239.788-94.293 194.133 0 352 157.867 352 352v85.333c0 17.493 14.507 32 32 32s32-14.507 32-32v-85.333c0.427-229.973-186.027-416.427-415.573-416.427zM106.727-10.227c-8.107 0-16.213 2.987-22.613 9.387-12.373 12.373-12.373 32.853 0 45.227l810.666 810.667c12.373 12.373 32.853 12.373 45.227 0s12.373-32.853 0-45.227l-810.666-810.667c-6.4-6.4-14.507-9.387-22.613-9.387zM492.834 693.26c-17.493 0-32 14.507-32 32v138.24c0 17.493 14.507 32 32 32s32-14.507 32-32v-138.24c0-17.92-14.507-32-32-32zM362.667 608c-17.493 0-32 14.507-32 32v170.667c0 17.493 14.507 32 32 32s32-14.507 32-32v-170.667c0-17.493-14.507-32-32-32z" />
<glyph unicode="&#xe92c;" glyph-name="microphone-slash-1" d="M341.333 458.667c-17.493 0-32 14.507-32 32v213.333c0 111.787 90.88 202.667 202.667 202.667s202.667-90.88 202.667-202.667v-12.8c0-17.493-14.507-32-32-32s-32 14.507-32 32v12.8c0 76.373-62.293 138.667-138.667 138.667s-138.667-62.293-138.667-138.667v-213.333c0-17.493-14.507-32-32-32zM511.945 266.667c-57.173 0-111.787 24.32-150.187 66.56-11.947 13.227-10.667 33.28 2.133 45.227 13.227 11.947 33.28 10.667 45.227-2.133 26.027-29.013 63.574-45.653 102.827-45.653 76.373 0 138.667 62.293 138.667 138.667v21.333c0 17.493 14.507 32 32 32s32-14.507 32-32v-21.333c0-111.787-90.88-202.667-202.667-202.667zM511.97 117.402c-90.879 0-177.919 34.133-244.479 96-12.8 11.947-13.653 32.427-1.707 45.227 12.373 13.227 32.853 13.653 45.653 1.707 54.613-50.773 125.865-78.933 200.532-78.933 162.133 0 294.4 132.267 294.4 294.4v72.532c0 17.493 14.507 32 32 32s32-14.507 32-32v-72.532c0-197.547-160.853-358.4-358.4-358.4zM211.267 316.655c-12.373 0-24.32 7.253-29.44 19.627-18.773 44.373-28.16 90.88-28.16 139.52v72.532c0 17.493 14.507 32 32 32s32-14.507 32-32v-72.532c0-39.68 7.68-78.080 23.040-114.347 6.827-16.213-0.853-34.987-17.067-41.813-3.84-2.133-8.107-2.987-12.373-2.987zM167.226 117.709c-8.107 0-16.213 2.987-22.613 9.387-12.373 12.373-12.373 32.853 0 45.227l689.068 689.065c12.373 12.373 32.853 12.373 45.227 0s12.373-32.853 0-45.227l-688.641-689.065c-6.4-6.4-14.507-9.387-23.040-9.387zM469.333 672c-17.493 0-32 14.507-32 32v128c0 17.493 14.507 32 32 32s32-14.507 32-32v-128c0-17.493-14.507-32-32-32zM512-10.667c-17.493 0-32 14.507-32 32v128c0 17.493 14.507 32 32 32s32-14.507 32-32v-128c0-17.493-14.507-32-32-32z" />
<glyph unicode="&#xe92d;" glyph-name="mini-music-sqaure" d="M469.333-10.667h-85.333c-231.68 0-330.667 98.987-330.667 330.667v256c0 231.68 98.987 330.667 330.667 330.667h256c231.68 0 330.667-98.987 330.667-330.667v-42.667c0-17.493-14.507-32-32-32s-32 14.507-32 32v42.667c0 196.693-69.973 266.667-266.667 266.667h-256c-196.693 0-266.667-69.973-266.667-266.667v-256c0-196.693 69.973-266.667 266.667-266.667h85.333c17.493 0 32-14.507 32-32s-14.507-32-32-32zM651.439-10.714c-51.627 0-93.44 41.813-93.44 93.44s41.813 93.44 93.44 93.44c51.627 0 93.44-41.813 93.44-93.44s-41.813-93.44-93.44-93.44zM651.439 112.593c-16.213 0-29.44-13.227-29.44-29.44s13.227-29.44 29.44-29.44c16.213 0 29.44 13.227 29.44 29.44s-13.227 29.44-29.44 29.44zM712.998 50.739c-17.493 0-32 14.507-32 32v248.32c0 38.827 23.893 70.4 61.44 80.213l123.307 33.707c38.4 10.667 62.293 0.427 75.947-9.813 13.227-10.24 29.013-30.72 29.013-70.4v-240.64c0-17.493-14.507-32-32-32s-32 14.507-32 32v240.64c0 13.653-2.987 18.773-4.267 19.627s-7.253 2.56-20.48-0.853l-123.307-33.707c-12.8-3.413-14.080-12.373-14.080-18.773v-248.32c0.427-17.493-14.080-32-31.573-32zM877.274 30.285c-51.627 0-93.44 41.813-93.44 93.44s41.813 93.44 93.44 93.44c51.627 0 93.44-41.813 93.44-93.44s-41.813-93.44-93.44-93.44zM877.274 153.591c-16.213 0-29.44-13.227-29.44-29.44s13.227-29.44 29.44-29.44c16.213 0 29.44 13.227 29.44 29.44s-13.227 29.44-29.44 29.44zM713.028 227.034c-14.080 0-26.88 9.387-30.72 23.467-4.693 17.067 5.547 34.56 22.613 39.253l225.707 61.44c17.067 4.693 34.56-5.547 39.253-22.613s-5.547-34.56-22.613-39.253l-225.707-61.44c-2.987-0.427-5.973-0.853-8.533-0.853z" />
<glyph unicode="&#xe92e;" glyph-name="music" d="M267.953-10.739c-90.88 0-165.12 74.24-165.12 165.12s74.24 165.12 165.12 165.12c90.88 0 165.122-74.24 165.122-165.12s-74.242-165.12-165.122-165.12zM267.953 255.501c-55.893 0-101.12-45.227-101.12-101.12s45.227-101.12 101.12-101.12c55.893 0 101.12 45.227 101.12 101.12s-45.227 101.12-101.12 101.12zM401 122.509c-17.493 0-32 14.507-32 32v536.748c0 67.413 40.533 120.32 105.385 137.813l266.24 72.533c54.187 14.933 99.84 9.387 131.84-15.36 32.427-24.747 48.64-66.133 48.64-122.88v-520.535c0-17.493-14.507-32-32-32s-32 14.507-32 32v520.961c0 24.747-4.267 57.173-23.467 71.68-20.907 16.213-56.747 9.813-76.373 4.267l-266.24-72.533c-37.12-10.24-58.027-37.973-58.027-76.373v-536.748c0-17.067-14.505-31.573-31.998-31.573zM756.122 78.093c-90.88 0-165.12 74.24-165.12 165.12s74.24 165.12 165.12 165.12c90.88 0 165.12-74.24 165.12-165.12s-74.24-165.12-165.12-165.12zM756.122 344.333c-55.893 0-101.12-45.227-101.12-101.12s45.227-101.12 101.12-101.12c55.893 0 101.12 45.227 101.12 101.12s-45.227 101.12-101.12 101.12zM401.058 521.762c-14.080 0-26.88 9.387-30.72 23.465-4.693 17.067 5.12 34.987 22.187 39.68l488.107 133.12c17.067 4.693 34.56-5.547 39.253-22.613s-5.547-34.56-22.613-39.253l-487.68-133.118c-2.987-0.853-5.973-1.28-8.533-1.28z" />
<glyph unicode="&#xe92f;" glyph-name="music-circle" d="M110.147 558.112c-3.413 0-7.253 0.426-10.667 1.706-16.64 5.973-25.173 24.321-19.627 40.961 28.587 80.213 78.080 150.612 144.214 203.945 13.653 11.093 33.706 8.961 44.8-4.692s8.96-33.707-4.693-45.227c-56.747-45.653-99.413-106.24-123.733-175.36-4.693-13.227-17.068-21.333-30.294-21.333zM110.080 273.92c-13.227 0-25.6 8.107-30.293 21.333-17.493 49.92-26.453 101.12-26.453 152.747 0 17.493 14.507 32 32 32s32-14.507 32-32c0-44.373 7.68-88.747 23.040-131.413 5.973-16.64-2.988-34.987-19.628-40.96-3.413-1.28-7.253-1.707-10.667-1.707zM511.94-10.731c-45.227 0-90.025 6.827-133.545 20.053-17.067 5.12-26.453 23.040-21.333 40.107s23.040 26.453 40.107 21.333c37.118-11.52 75.945-17.067 114.772-17.067 217.6 0 394.667 177.067 394.667 394.667 0 22.187-2.129 45.227-6.396 69.547-2.987 17.493 8.529 34.133 26.022 37.12s34.133-8.532 37.12-26.026c5.12-28.16 7.684-54.613 7.684-81.067-0.427-253.013-206.084-458.667-459.098-458.667zM243.98 85.248c-7.253 0-14.080 2.133-20.053 7.253-24.32 19.627-43.948 38.4-60.588 57.6-11.52 13.227-9.812 33.707 3.414 45.227s33.707 9.813 45.227-3.413c14.080-16.213 31.147-32.427 52.053-49.493 13.653-11.093 15.786-31.147 4.692-44.8-5.973-8.107-15.359-12.373-24.746-12.373zM863.505 657.471c-10.24 0-20.053 4.694-26.453 14.081-73.813 107.52-195.409 171.521-325.116 171.521-38.827 0-77.658-5.548-114.775-17.068-16.64-5.12-34.56 4.267-40.107 21.333s4.267 34.987 21.333 40.107c43.52 13.227 88.322 20.055 133.549 20.055 151.040 0 292.262-74.668 378.022-199.255 9.813-14.507 6.404-34.559-8.102-44.372-5.547-4.693-11.951-6.401-18.351-6.401zM366.507 197.986c-55.040 0-99.84 44.8-99.84 99.84s44.8 99.84 99.84 99.84c55.040 0 99.84-44.8 99.84-99.84s-44.8-99.84-99.84-99.84zM366.507 333.666c-19.627 0-35.84-16.213-35.84-35.84s16.213-35.84 35.84-35.84c19.627 0 35.84 16.213 35.84 35.84s-16.213 35.84-35.84 35.84zM434.334 265.783c-17.494 0-32 14.507-32 32v273.067c0 40.96 25.6 74.667 65.28 85.333l135.68 37.12c40.96 11.093 66.56 0.427 80.64-10.24 20.48-15.787 30.72-40.96 30.72-75.094v-264.96c0-17.493-14.507-32-32-32s-32 14.507-32 32v264.96c0 14.507-2.987 22.187-5.973 23.893-2.987 2.133-11.947 2.986-25.173-0.427l-135.68-37.12c-11.947-3.413-17.92-11.093-17.92-23.466v-273.067c0.427-17.493-14.080-32-31.573-32zM614.839 243.153c-55.040 0-99.84 44.8-99.84 99.84s44.8 99.84 99.84 99.84c55.040 0 99.84-44.8 99.84-99.84s-44.8-99.84-99.84-99.84zM614.839 378.833c-19.627 0-35.84-16.213-35.84-35.84s16.213-35.84 35.84-35.84c19.627 0 35.84 16.213 35.84 35.84s-16.213 35.84-35.84 35.84zM434.359 469.299c-14.080 0-26.88 9.387-30.72 23.467-4.693 17.067 5.547 34.56 22.613 39.253l248.32 67.841c17.067 4.693 34.56-5.545 39.253-22.612s-5.547-34.562-22.613-39.255l-248.32-67.84c-2.987-0.853-5.973-0.853-8.533-0.853z" />
<glyph unicode="&#xe930;" glyph-name="music-dashboard" d="M640-10.667h-256c-231.68 0-330.667 98.987-330.667 330.667v256c0 231.68 98.987 330.667 330.667 330.667h256c231.68 0 330.667-98.987 330.667-330.667v-256c0-231.68-98.987-330.667-330.667-330.667zM384 842.667c-196.693 0-266.667-69.973-266.667-266.667v-256c0-196.693 69.973-266.667 266.667-266.667h256c196.693 0 266.667 69.973 266.667 266.667v256c0 196.693-69.973 266.667-266.667 266.667h-256zM298.667 10.667c-17.493 0-32 14.507-32 32v810.667c0 17.493 14.507 32 32 32s32-14.507 32-32v-810.667c0-17.493-14.507-32-32-32zM489.408 211.187c-52.907 0-95.575 43.093-95.575 95.573s43.095 95.573 95.575 95.573c52.48 0 95.573-43.093 95.573-95.573s-43.093-95.573-95.573-95.573zM489.408 338.761c-17.493 0-31.573-14.080-31.573-31.573s14.080-31.573 31.573-31.573c17.493 0 31.573 14.080 31.573 31.573s-14.507 31.573-31.573 31.573zM552.998 274.752c-17.493 0-32 14.507-32 32v256.427c0 39.253 24.747 71.68 62.72 81.92l127.147 34.56c39.253 10.667 64 0.427 77.653-10.24 19.627-14.933 29.867-39.253 29.867-72.107v-248.747c0-17.493-14.507-32-32-32s-32 14.507-32 32v248.747c0 14.080-2.987 20.053-4.693 20.906-2.133 1.707-9.387 2.559-21.76-0.854l-127.147-34.56c-10.24-2.987-15.36-9.386-15.36-20.479v-256.426c-0.427-16.64-14.933-31.147-32.427-31.147zM722.406 253.854c-52.907 0-95.573 43.093-95.573 95.573 0 52.907 43.093 95.573 95.573 95.573s95.573-43.093 95.573-95.573c0.427-52.907-42.667-95.573-95.573-95.573zM722.406 381.001c-17.493 0-31.573-14.080-31.573-31.573s14.080-31.573 31.573-31.573c17.493 0 31.573 14.080 31.573 31.573s-14.080 31.573-31.573 31.573zM553.028 456.9c-14.080 0-26.88 9.387-30.72 23.467-4.693 17.067 5.547 34.56 22.613 39.253l233.387 63.573c17.067 4.693 34.56-5.545 39.253-22.612s-5.547-34.561-22.613-39.254l-233.387-63.573c-2.987-0.427-5.973-0.853-8.533-0.853z" />
<glyph unicode="&#xe931;" glyph-name="music-filter" d="M938.667 800h-853.333c-17.493 0-32 14.507-32 32s14.507 32 32 32h853.333c17.493 0 32-14.507 32-32s-14.507-32-32-32zM469.333 544h-384c-17.493 0-32 14.507-32 32s14.507 32 32 32h384c17.493 0 32-14.507 32-32s-14.507-32-32-32zM341.333 288h-256c-17.493 0-32 14.507-32 32s14.507 32 32 32h256c17.493 0 32-14.507 32-32s-14.507-32-32-32zM256 32h-170.667c-17.493 0-32 14.507-32 32s14.507 32 32 32h170.667c17.493 0 32-14.507 32-32s-14.507-32-32-32zM505.182-10.692c-68.693 0-125.015 55.893-125.015 125.013 0 68.693 55.895 125.013 125.015 125.013s125.013-55.893 125.013-125.013c0-69.12-55.893-125.013-125.013-125.013zM505.182 174.908c-33.707 0-61.013-27.307-61.013-61.013s27.307-61.013 61.013-61.013c33.707 0 61.013 27.307 61.013 61.013s-27.307 61.013-61.013 61.013zM598.165 82.291c-17.493 0-32 14.507-32 32v374.187c0 51.627 30.72 92.159 80.64 105.386l185.6 50.774c40.533 11.093 75.52 6.828 100.267-12.372s37.547-50.347 37.547-93.44v-363.094c0-17.493-14.507-32-32-32s-32 14.507-32 32v363.094c0 21.333-4.267 36.266-12.373 42.24-8.107 6.4-24.747 6.828-44.8 1.281l-185.6-50.774c-12.373-3.413-33.28-13.653-33.28-43.947v-374.187c0-17.067-14.507-31.147-32-31.147zM845.679 51.14c-68.693 0-125.013 55.893-125.013 125.013 0 68.693 55.893 125.013 125.013 125.013s125.013-55.893 125.013-125.013c0-69.12-55.893-125.013-125.013-125.013zM845.679 236.74c-33.707 0-61.013-27.307-61.013-61.013s27.307-61.013 61.013-61.013c33.707 0 61.013 27.307 61.013 61.013s-27.307 61.013-61.013 61.013zM598.195 347.793c-14.080 0-26.88 9.387-30.72 23.467-4.693 17.067 5.547 34.56 22.613 39.253l340.48 93.013c17.067 4.693 34.56-5.547 39.253-22.613s-5.547-34.56-22.613-39.253l-340.48-93.013c-2.987-0.427-5.973-0.853-8.533-0.853z" />
<glyph unicode="&#xe932;" glyph-name="music-library-2" d="M725.333-10.667h-426.667c-155.733 0-245.333 89.6-245.333 245.333v170.667c0 153.6 81.921 210.773 150.615 232.107 27.733 8.96 59.732 13.227 94.719 13.227h426.667c34.987 0 66.987-4.694 95.147-13.654 68.267-20.907 150.187-78.506 150.187-231.68v-170.667c0-155.733-89.6-245.333-245.333-245.333zM298.667 586.667c-28.16 0-53.761-3.413-75.521-10.667-71.253-21.76-105.812-77.653-105.812-170.667v-170.667c0-122.027 59.307-181.333 181.333-181.333h426.667c122.027 0 181.333 59.307 181.333 181.333v170.667c0 93.013-34.56 148.907-105.387 170.667-22.187 7.253-47.787 10.667-75.947 10.667h-426.667zM810.667 574.719c-3.413 0-6.4 0.428-9.813 1.708-21.76 6.827-47.36 10.667-75.52 10.667h-426.667c-28.16 0-53.761-3.413-75.521-10.667-9.813-2.987-20.479-1.28-28.586 4.693s-13.227 15.786-13.227 26.026v54.188c0 64.853 52.48 117.333 117.333 117.333h426.667c64.853 0 117.333-52.48 117.333-117.333v-54.615c0-10.24-4.693-19.626-13.227-26.026-5.547-3.84-11.947-5.974-18.773-5.974zM298.667 714.667c-29.44 0-53.333-23.893-53.333-53.333v-14.508c16.64 2.56 34.56 3.841 53.333 3.841h426.667c18.773 0 36.693-1.281 53.333-3.841v14.508c0 29.44-23.893 53.333-53.333 53.333h-426.667zM682.667 714.667h-341.333c-17.493 0-32 14.507-32 32v63.573c0 53.333 43.094 96.427 96.427 96.427h212.48c53.333 0 96.427-43.094 96.427-96.427v-63.573c0-17.493-14.507-32-32-32zM373.333 778.667h277.333v31.573c0 17.92-14.507 32.427-32.427 32.427h-212.48c-17.92 0-32.427-14.507-32.427-32.427v-31.573zM386.987 97.694c-48.64 0-88.32 39.68-88.32 88.32s39.68 88.32 88.32 88.32c48.64 0 88.32-39.68 88.32-88.32s-39.253-88.32-88.32-88.32zM386.987 210.761c-13.653 0-24.32-11.093-24.32-24.32s11.094-24.32 24.32-24.32c13.227 0 24.32 11.093 24.32 24.32s-10.667 24.32-24.32 24.32zM443.665 154.505c-17.492 0-31.998 14.507-31.998 32v227.413c0 36.693 23.038 66.56 58.452 76.373l113.067 30.72c36.267 9.813 59.307 0.427 72.107-9.387s27.733-29.013 27.733-66.56v-220.587c0-17.493-14.507-32-32-32s-32 14.507-32 32v220.587c0 10.667-2.133 14.933-2.987 15.787-0.853 0.427-5.973 1.28-16.213-1.28l-113.067-30.72c-9.813-2.56-11.093-8.96-11.093-14.507v-227.413c0-18.347-14.507-32.427-32-32.427zM594.321 135.693c-48.64 0-88.32 39.68-88.32 88.32s39.68 88.32 88.32 88.32c48.64 0 88.32-39.68 88.32-88.32s-39.68-88.32-88.32-88.32zM594.321 248.333c-13.653 0-24.32-11.093-24.32-24.32s11.093-24.32 24.32-24.32c13.227 0 24.32 11.093 24.32 24.32s-11.093 24.32-24.32 24.32zM443.695 315.823c-14.080 0-26.882 9.382-30.722 23.462-4.693 17.067 5.548 34.56 22.615 39.253l206.933 56.32c17.067 4.693 34.556-5.547 39.249-22.613s-5.542-34.56-22.609-39.253l-206.938-56.32c-2.987-0.427-5.969-0.849-8.529-0.849z" />
<glyph unicode="&#xe933;" glyph-name="musicnote" d="M340-10.667c-111.787 0-202.667 90.88-202.667 202.667s90.88 202.667 202.667 202.667c111.785 0 202.669-90.88 202.669-202.667s-90.884-202.667-202.669-202.667zM340 330.667c-76.373 0-138.667-62.293-138.667-138.667s62.293-138.667 138.667-138.667c76.373 0 138.669 62.293 138.669 138.667s-61.869 138.667-138.669 138.667zM510.669 160c-17.493 0-32 14.507-32 32v597.333c0 17.493 14.507 32 32 32 17.489 0 32-14.507 32-32v-597.333c0-17.493-14.084-32-32-32zM816.235 523.46c-14.080 0-29.013 2.56-43.52 7.253l-188.587 62.72c-58.88 19.627-104.96 83.627-104.96 145.493v50.347c0 41.387 17.067 77.227 46.080 98.56 29.44 21.333 68.693 25.6 107.947 12.8l188.587-62.72c58.88-19.627 104.96-83.627 104.96-145.493v-49.92c0-41.387-17.067-77.227-46.080-98.56-18.347-14.080-40.96-20.48-64.427-20.48zM589.675 843.887c-10.24 0-19.627-2.56-26.88-8.107-12.8-8.96-19.627-25.6-19.627-46.507v-49.92c0-34.133 28.587-73.813 61.013-84.907l188.587-62.72c19.627-6.827 37.973-5.12 50.347 3.84 12.8 8.96 19.627 25.6 19.627 46.507v49.92c0 34.133-28.587 73.813-61.013 84.907l-188.587 62.72c-8.107 2.987-16.213 4.267-23.467 4.267z" />
<glyph unicode="&#xe934;" glyph-name="music-playlist" d="M725.333-10.667h-426.667c-155.733 0-245.333 89.6-245.333 245.333v213.333c0 155.733 89.6 245.333 245.333 245.333h426.667c155.733 0 245.333-89.6 245.333-245.333v-213.333c0-155.733-89.6-245.333-245.333-245.333zM298.667 629.333c-122.027 0-181.333-59.307-181.333-181.333v-213.333c0-122.027 59.307-181.333 181.333-181.333h426.667c122.027 0 181.333 59.307 181.333 181.333v213.333c0 122.027-59.307 181.333-181.333 181.333h-426.667zM768 736h-512c-17.493 0-32 14.507-32 32s14.507 32 32 32h512c17.493 0 32-14.507 32-32s-14.507-32-32-32zM640 842.667h-256c-17.493 0-32 14.507-32 32s14.507 32 32 32h256c17.493 0 32-14.507 32-32s-14.507-32-32-32zM379.287 112.593c-49.92 0-90.453 40.533-90.453 90.453s40.533 90.453 90.453 90.453c49.919 0 90.452-40.533 90.452-90.453s-40.533-90.453-90.452-90.453zM379.287 229.5c-14.507 0-26.453-11.947-26.453-26.453s11.947-26.453 26.453-26.453c14.507 0 26.453 11.947 26.453 26.453s-11.946 26.453-26.453 26.453zM437.666 171.089c-17.493 0-32 14.507-32 32v235.093c0 37.547 23.466 67.84 59.306 77.653l116.907 32c37.12 10.24 60.587 0.425 73.387-9.815 12.8-9.811 28.16-29.865 28.16-67.838v-228.267c0-17.493-14.507-32-32-32s-32 14.507-32 32v228.267c0 11.947-2.56 16.64-3.413 17.067s-5.973 2.133-17.92-1.28l-116.48-32c-10.667-2.987-12.373-10.24-12.373-16.213v-235.093c0.427-17.067-14.080-31.573-31.573-31.573zM593.455 151.428c-49.92 0-90.453 40.533-90.453 90.453s40.533 90.453 90.453 90.453c49.92 0 90.453-40.533 90.453-90.453s-40.533-90.453-90.453-90.453zM593.455 268.335c-14.507 0-26.453-11.947-26.453-26.453s11.947-26.453 26.453-26.453c14.507 0 26.453 11.947 26.453 26.453s-11.947 26.453-26.453 26.453zM437.696 337.852c-14.081 0-26.883 9.387-30.723 23.467-4.693 17.067 5.548 34.56 22.616 39.253l213.76 58.453c17.493 4.693 34.56-5.547 39.253-22.613s-5.551-34.56-22.618-39.253l-213.756-58.453c-2.987-0.427-5.547-0.853-8.533-0.853z" />
<glyph unicode="&#xe935;" glyph-name="music-square" d="M640-10.667h-256c-231.68 0-330.667 98.987-330.667 330.667v256c0 231.68 98.987 330.667 330.667 330.667h256c231.68 0 330.667-98.987 330.667-330.667v-256c0-231.68-98.987-330.667-330.667-330.667zM384 842.667c-196.693 0-266.667-69.973-266.667-266.667v-256c0-196.693 69.973-266.667 266.667-266.667h256c196.693 0 266.667 69.973 266.667 266.667v256c0 196.693-69.973 266.667-266.667 266.667h-256zM359.32 198.025c-54.613 0-98.987 44.373-98.987 98.987s44.374 98.987 98.987 98.987c54.613 0 98.988-44.373 98.988-98.987s-44.375-98.987-98.988-98.987zM359.32 331.998c-19.2 0-34.987-15.787-34.987-34.987s15.787-34.987 34.987-34.987c19.2 0 34.987 15.787 34.987 34.987s-15.787 34.987-34.987 34.987zM426.333 264.956c-17.493 0-32 14.507-32 32v270.080c0 40.96 25.601 74.242 64.854 84.909l133.973 36.693c40.533 11.093 66.133 0.427 80.213-10.24 20.48-15.787 30.72-40.535 30.72-74.242v-261.973c0-17.493-14.507-32-32-32s-32 14.507-32 32v261.973c0 14.080-2.987 21.762-5.547 23.469-2.133 1.707-9.813 3.413-24.747-0.427l-133.973-36.693c-11.947-3.413-17.493-10.668-17.493-23.042v-270.080c0-17.92-14.507-32.427-32-32.427zM604.988 242.692c-54.613 0-98.987 44.373-98.987 98.987s44.373 98.987 98.987 98.987c54.613 0 98.987-44.373 98.987-98.987s-44.373-98.987-98.987-98.987zM604.988 376.666c-19.2 0-34.987-15.787-34.987-34.987s15.787-34.987 34.987-34.987c19.2 0 34.987 15.787 34.987 34.987s-15.787 34.987-34.987 34.987zM426.192 456.99c-14.080 0-26.879 9.382-30.719 23.462-4.693 17.067 5.545 34.56 22.612 39.253l245.761 66.988c17.493 4.693 34.56-5.548 39.253-22.615s-5.547-34.56-22.613-39.253l-245.76-66.987c-2.987-0.427-5.973-0.849-8.534-0.849z" />
<glyph unicode="&#xe936;" glyph-name="music-square-add" d="M612.267 32h-243.2c-221.44 0-315.733 94.293-315.733 315.733v243.199c0 221.44 94.293 315.734 315.733 315.734h243.2c221.44 0 315.733-94.294 315.733-315.734v-243.199c0-15.36-0.427-29.867-1.28-43.947-0.853-12.8-9.387-23.893-21.76-28.16s-25.6-0.427-34.56 8.96c-25.6 29.013-63.147 46.080-102.827 46.080-76.373 0-138.667-62.293-138.667-138.667 0-25.173 6.827-49.92 20.053-71.253 6.827-11.947 15.787-22.613 26.027-31.573 9.813-8.533 13.653-22.187 9.387-34.133-4.267-12.373-15.36-20.907-28.16-21.76-13.653-0.853-28.16-1.28-43.947-1.28zM369.066 842.667c-186.027 0-251.733-65.708-251.733-251.734v-243.199c0-186.027 65.706-251.733 251.733-251.733h220.587c-15.787 29.013-24.32 61.867-24.32 96 0 111.787 90.88 202.667 202.667 202.667 34.133 0 66.987-8.533 96-23.893v220.159c0 186.027-65.707 251.734-251.733 251.734h-243.2zM286.7 312.768c-51.627 0-93.867 42.24-93.867 93.867s42.24 93.867 93.867 93.867c51.627 0 93.867-42.24 93.867-93.867s-42.24-93.867-93.867-93.867zM286.7 436.501c-16.213 0-29.867-13.227-29.867-29.867 0-16.213 13.227-29.867 29.867-29.867s29.867 13.227 29.867 29.867c0 16.64-13.227 29.867-29.867 29.867zM348.667 374.554c-17.493 0-32 14.507-32 32v248.747c0 38.827 24.32 70.401 61.44 80.641l123.734 33.706c38.4 10.667 62.72 0.428 75.947-9.812s29.44-30.721 29.44-70.401v-241.493c0-17.493-14.507-32-32-32s-32 14.507-32 32v241.493c0 13.653-2.987 18.774-4.267 19.628s-7.253 2.559-20.48-0.854l-123.308-33.705c-12.8-3.413-14.506-12.374-14.506-18.774v-248.747c0-17.92-14.507-32.427-32-32.427zM513.199 354.099c-51.627 0-93.866 42.24-93.866 93.867s42.239 93.868 93.866 93.868c51.627 0 93.867-42.241 93.867-93.868 0-52.053-42.24-93.867-93.867-93.867zM513.199 477.406c-16.213 0-29.867-13.227-29.867-29.867 0-16.213 13.227-29.867 29.867-29.867s29.867 13.227 29.867 29.867c0 16.64-13.653 29.867-29.867 29.867zM348.527 551.25c-14.080 0-26.88 9.386-30.72 23.466-4.693 17.067 5.547 34.562 22.613 39.255l226.56 61.868c17.067 4.267 34.56-5.548 39.253-22.615s-5.547-34.56-22.613-39.253l-226.56-61.867c-2.987-0.427-5.973-0.854-8.533-0.854zM768-10.667c-70.827 0-137.387 37.547-173.227 98.56-19.2 30.72-29.44 66.987-29.44 104.107 0 111.787 90.88 202.667 202.667 202.667s202.667-90.88 202.667-202.667c0-37.12-10.24-73.387-29.44-104.533-35.84-60.587-102.4-98.133-173.227-98.133zM768 330.667c-76.373 0-138.667-62.293-138.667-138.667 0-25.173 6.827-49.92 20.053-71.253 25.173-42.667 69.547-67.413 118.613-67.413s93.44 25.173 118.613 66.987c13.227 21.76 20.053 46.080 20.053 71.68 0 76.373-62.293 138.667-138.667 138.667zM831.573 160.832h-127.573c-17.493 0-32 14.507-32 32s14.507 32 32 32h127.573c17.493 0 32-14.507 32-32s-14.080-32-32-32zM768 95.595c-17.493 0-32 14.507-32 32v127.573c0 17.493 14.507 32 32 32s32-14.507 32-32v-127.573c0-17.92-14.507-32-32-32z" />
<glyph unicode="&#xe937;" glyph-name="music-square-remove" d="M612.267 32h-243.2c-221.44 0-315.733 94.293-315.733 315.733v243.199c0 221.44 94.293 315.734 315.733 315.734h243.2c221.44 0 315.733-94.294 315.733-315.734v-243.199c0-15.36-0.427-29.867-1.28-43.947-0.853-12.8-9.387-23.893-21.76-28.16s-25.6-0.427-34.56 8.96c-25.6 29.013-63.147 46.080-102.827 46.080-76.373 0-138.667-62.293-138.667-138.667 0-25.173 6.827-49.92 20.053-71.253 6.827-11.947 15.787-22.613 26.027-31.573 9.813-8.533 13.653-22.187 9.387-34.133-4.267-12.373-15.36-20.907-28.16-21.76-13.653-0.853-28.16-1.28-43.947-1.28zM369.067 842.667c-186.027 0-251.733-65.708-251.733-251.734v-243.199c0-186.027 65.707-251.733 251.733-251.733h220.587c-15.787 29.013-24.32 61.867-24.32 96 0 111.787 90.88 202.667 202.667 202.667 34.133 0 66.987-8.533 96-23.893v220.159c0 186.027-65.707 251.734-251.733 251.734h-243.2zM286.7 312.768c-51.627 0-93.867 42.24-93.867 93.867s42.24 93.867 93.867 93.867c51.627 0 93.866-42.24 93.866-93.867s-42.24-93.867-93.866-93.867zM286.7 436.501c-16.213 0-29.867-13.227-29.867-29.867 0-16.213 13.227-29.867 29.867-29.867s29.866 13.227 29.866 29.867c0 16.64-13.226 29.867-29.866 29.867zM348.667 374.554c-17.493 0-32 14.507-32 32v248.747c0 38.827 24.32 70.401 61.44 80.641l123.734 33.706c38.4 10.667 62.72 0.428 75.947-9.812s29.44-30.721 29.44-70.401v-241.493c0-17.493-14.507-32-32-32s-32 14.507-32 32v241.493c0 13.653-2.987 18.774-4.267 19.628s-7.68 2.559-20.48-0.854l-123.308-33.705c-12.8-3.413-14.507-12.374-14.507-18.774v-248.747c0-17.92-14.507-32.427-32-32.427zM513.199 354.099c-51.627 0-93.866 42.24-93.866 93.867s42.239 93.868 93.866 93.868c51.627 0 93.867-42.241 93.867-93.868 0-52.053-42.24-93.867-93.867-93.867zM513.199 477.406c-16.213 0-29.867-13.227-29.867-29.867 0-16.213 13.227-29.867 29.867-29.867s29.867 13.227 29.867 29.867c0 16.64-13.653 29.867-29.867 29.867zM348.527 551.25c-14.080 0-26.88 9.386-30.72 23.466-4.693 17.067 5.547 34.562 22.614 39.255l226.56 61.868c17.067 4.267 34.56-5.548 39.253-22.615s-5.547-34.56-22.613-39.253l-226.56-61.867c-2.987-0.427-5.974-0.854-8.534-0.854zM768-10.667c-50.347 0-98.133 18.773-135.253 52.48-14.933 12.8-28.16 28.587-38.4 46.080-18.773 30.72-29.013 66.987-29.013 104.107 0 111.787 90.88 202.667 202.667 202.667 58.027 0 113.067-24.747 150.613-67.413 33.28-37.12 52.053-84.907 52.053-135.253 0-37.12-10.24-73.387-29.44-104.533-35.84-60.587-102.4-98.133-173.227-98.133zM768 330.667c-76.373 0-138.667-62.293-138.667-138.667 0-25.173 6.827-49.92 20.053-71.253 6.827-11.947 15.787-22.613 26.027-31.573 25.6-23.467 58.453-36.267 92.587-36.267 49.067 0 93.44 25.173 118.613 66.987 13.227 21.76 20.053 46.080 20.053 71.68 0 34.133-12.8 66.987-35.84 92.587-25.6 29.867-63.147 46.507-102.827 46.507zM813.585 115.584c-8.107 0-16.213 2.982-22.613 9.382l-90.027 90.027c-12.373 12.373-12.373 32.853 0 45.227s32.853 12.373 45.227 0l90.027-90.027c12.373-12.373 12.373-32.853 0-45.227-6.4-6.4-14.507-9.382-22.613-9.382zM722.394 114.411c-8.107 0-16.213 2.991-22.613 9.391-12.373 12.373-12.373 32.853 0 45.227l90.027 90.027c12.373 12.373 32.853 12.373 45.227 0s12.373-32.853 0-45.227l-90.027-90.027c-6.4-6.4-14.507-9.391-22.613-9.391z" />
</font>
</defs>
</svg>
